385 lines
3.5 KiB
Plaintext
385 lines
3.5 KiB
Plaintext
|
TITLE:Meowmetic
|
||
|
SUBTITLE:--HH5
|
||
|
PREIMAGE:Meowmetic.jpg
|
||
|
WAVE:Meowmetic.ogg
|
||
|
BPM:125
|
||
|
OFFSET:-0.145
|
||
|
DEMOSTART:46.214
|
||
|
MAKER:Colin
|
||
|
|
||
|
COURSE:Easy
|
||
|
LEVEL:2
|
||
|
SCOREINIT:
|
||
|
SCOREDIFF:
|
||
|
NOTESDESIGNER0:Colin
|
||
|
|
||
|
#START
|
||
|
1,
|
||
|
1,
|
||
|
1,
|
||
|
1,
|
||
|
1,
|
||
|
1,
|
||
|
1,
|
||
|
1,
|
||
|
1020,
|
||
|
1,
|
||
|
2020,
|
||
|
1,
|
||
|
2010,
|
||
|
2,
|
||
|
2,
|
||
|
2,
|
||
|
#GOGOSTART
|
||
|
1020,
|
||
|
1,
|
||
|
1,
|
||
|
2,
|
||
|
1,
|
||
|
2020,
|
||
|
1,
|
||
|
2020,
|
||
|
1,
|
||
|
1,
|
||
|
1,
|
||
|
1020,
|
||
|
1,
|
||
|
1020,
|
||
|
1020,
|
||
|
1020,
|
||
|
#GOGOEND
|
||
|
3,
|
||
|
1,
|
||
|
1,
|
||
|
1,
|
||
|
1,
|
||
|
1,
|
||
|
1,
|
||
|
1,
|
||
|
2,
|
||
|
2,
|
||
|
2,
|
||
|
2,
|
||
|
2,
|
||
|
2,
|
||
|
2,
|
||
|
2,
|
||
|
#GOGOSTART
|
||
|
1010,
|
||
|
1,
|
||
|
1020,
|
||
|
2,
|
||
|
1020,
|
||
|
1,
|
||
|
1020,
|
||
|
1,
|
||
|
2010,
|
||
|
2,
|
||
|
1020,
|
||
|
1,
|
||
|
2020,
|
||
|
1,
|
||
|
1010,
|
||
|
2,
|
||
|
1020,
|
||
|
1,
|
||
|
1020,
|
||
|
1,
|
||
|
1010,
|
||
|
1,
|
||
|
2020,
|
||
|
2,
|
||
|
1010,
|
||
|
2,
|
||
|
2020,
|
||
|
1,
|
||
|
1010,
|
||
|
1,
|
||
|
1010,
|
||
|
100000001000100
|
||
|
#GOGOEND
|
||
|
0,
|
||
|
#END
|
||
|
|
||
|
COURSE:Normal
|
||
|
LEVEL:3
|
||
|
SCOREINIT:
|
||
|
SCOREDIFF:
|
||
|
NOTESDESIGNER1:Colin
|
||
|
|
||
|
#START
|
||
|
1,
|
||
|
1,
|
||
|
1,
|
||
|
1,
|
||
|
1,
|
||
|
1,
|
||
|
1,
|
||
|
1,
|
||
|
1210,
|
||
|
1210,
|
||
|
1020,
|
||
|
1210,
|
||
|
2010,
|
||
|
2110,
|
||
|
2010,
|
||
|
2110,
|
||
|
#GOGOSTART
|
||
|
1020,
|
||
|
1120,
|
||
|
1020,
|
||
|
2210,
|
||
|
1020,
|
||
|
2220,
|
||
|
1020,
|
||
|
2220,
|
||
|
1020,
|
||
|
1020,
|
||
|
1020,
|
||
|
1122,
|
||
|
1020,
|
||
|
1120,
|
||
|
1020,
|
||
|
1011,
|
||
|
#GOGOEND
|
||
|
3020,
|
||
|
1020,
|
||
|
1020,
|
||
|
1020,
|
||
|
1020,
|
||
|
1,
|
||
|
1020,
|
||
|
1020,
|
||
|
2020,
|
||
|
2,
|
||
|
2020,
|
||
|
2022,
|
||
|
2020,
|
||
|
2020,
|
||
|
2020,
|
||
|
2,
|
||
|
#GOGOSTART
|
||
|
1110,
|
||
|
1120,
|
||
|
1220,
|
||
|
2220,
|
||
|
1120,
|
||
|
1120,
|
||
|
1220,
|
||
|
1122,
|
||
|
2010,
|
||
|
2011,
|
||
|
1020,
|
||
|
1101,
|
||
|
2020,
|
||
|
1120,
|
||
|
1010,
|
||
|
2210,
|
||
|
1220,
|
||
|
1120,
|
||
|
1021,
|
||
|
1120,
|
||
|
1010,
|
||
|
1110,
|
||
|
2020,
|
||
|
2220,
|
||
|
1110,
|
||
|
2220,
|
||
|
2220,
|
||
|
1122,
|
||
|
1212,
|
||
|
1020,
|
||
|
1212,
|
||
|
100010101010200
|
||
|
#GOGOEND
|
||
|
0,
|
||
|
#END
|
||
|
|
||
|
COURSE:Hard
|
||
|
LEVEL:4
|
||
|
SCOREINIT:
|
||
|
SCOREDIFF:
|
||
|
NOTESDESIGNER2:Colin
|
||
|
|
||
|
#START
|
||
|
1,
|
||
|
2,
|
||
|
1,
|
||
|
2,
|
||
|
1,
|
||
|
1,
|
||
|
1,
|
||
|
1,
|
||
|
10201120,
|
||
|
10201120,
|
||
|
10201120,
|
||
|
10201120,
|
||
|
10201120,
|
||
|
10201120,
|
||
|
10201120,
|
||
|
1000200010111010,
|
||
|
#GOGOSTART
|
||
|
20102120,
|
||
|
20102120,
|
||
|
20102120,
|
||
|
20102120,
|
||
|
10201120,
|
||
|
10210120,
|
||
|
10201120,
|
||
|
10210120,
|
||
|
3010201110102000,
|
||
|
1010201110102000,
|
||
|
10211120,
|
||
|
10210121,
|
||
|
10201120,
|
||
|
10201121,
|
||
|
10201120,
|
||
|
10201122,
|
||
|
#GOGOEND
|
||
|
1,
|
||
|
2,
|
||
|
1,
|
||
|
2,
|
||
|
1,
|
||
|
1,
|
||
|
1,
|
||
|
1,
|
||
|
10210120,
|
||
|
10210120,
|
||
|
10210120,
|
||
|
10210120,
|
||
|
10210120,
|
||
|
10210120,
|
||
|
10210120,
|
||
|
1000201011011010,
|
||
|
#GOGOSTART
|
||
|
31201020,
|
||
|
1000201110102000,
|
||
|
10201120,
|
||
|
11211020,
|
||
|
10201120,
|
||
|
10210121,
|
||
|
10201120,
|
||
|
10210121,
|
||
|
10201120,
|
||
|
10201120,
|
||
|
10210120,
|
||
|
12012020,
|
||
|
10201120,
|
||
|
11211020,
|
||
|
10210120,
|
||
|
12012020,
|
||
|
10210120,
|
||
|
12012020,
|
||
|
10210120,
|
||
|
12012020,
|
||
|
20120120,
|
||
|
21012020,
|
||
|
20210120,
|
||
|
22201120,
|
||
|
10210120,
|
||
|
12012020,
|
||
|
10210120,
|
||
|
12022020,
|
||
|
10210220,
|
||
|
21012020,
|
||
|
20210120,
|
||
|
102000101101102
|
||
|
#GOGOEND
|
||
|
0,
|
||
|
#END
|
||
|
|
||
|
COURSE:Oni
|
||
|
LEVEL:7
|
||
|
SCOREINIT:
|
||
|
SCOREDIFF:
|
||
|
NOTESDESIGNER3:Colin
|
||
|
|
||
|
#START
|
||
|
1001001001001001,
|
||
|
1001001001001001,
|
||
|
1001001001001001,
|
||
|
1001001001001001,
|
||
|
1001001001001001,
|
||
|
1001001011001001,
|
||
|
1001001001001001,
|
||
|
1001001001000000,
|
||
|
1011201011012010,
|
||
|
1011201011012011,
|
||
|
1010201011012011,
|
||
|
1010201011012011,
|
||
|
1010201011012011,
|
||
|
1010201011012011,
|
||
|
1010201011012011,
|
||
|
1011201021012010,
|
||
|
#GOGOSTART
|
||
|
1020112010201121,
|
||
|
1020102011201022,
|
||
|
1020102011201021,
|
||
|
1020112011012020,
|
||
|
1020112010210120,
|
||
|
1020102011210122,
|
||
|
1021012011210121,
|
||
|
1021012011201020,
|
||
|
1011202010222020,
|
||
|
1021021010222022,
|
||
|
1011202010222020,
|
||
|
1021021010222022,
|
||
|
1021202010212010,
|
||
|
1021202010212011,
|
||
|
1021201011202022,
|
||
|
1021201011202020,
|
||
|
#GOGOEND
|
||
|
1001001001001010,
|
||
|
2002002002002022,
|
||
|
1001001001001010,
|
||
|
2002002002002022,
|
||
|
1001001001001010,
|
||
|
2002002002002022,
|
||
|
1001001001001010,
|
||
|
2002002002002020,
|
||
|
1001201011002001,
|
||
|
1001201011002011,
|
||
|
1001201001002001,
|
||
|
1001201001002001,
|
||
|
1001201001002000,
|
||
|
1001201001002001,
|
||
|
1001201001002001,
|
||
|
1001201021012010,
|
||
|
#GOGOSTART
|
||
|
1020102011201020,
|
||
|
1020102011201022,
|
||
|
1021012010201020,
|
||
|
1021012010212020,
|
||
|
1020112010210120,
|
||
|
1020112010212022,
|
||
|
1011201011012011,
|
||
|
1011202010112022,
|
||
|
1020112010210120,
|
||
|
1020112010210122,
|
||
|
1020102010212020,
|
||
|
1020112010222020,
|
||
|
1020102210201202,
|
||
|
1020102012021022,
|
||
|
1020102011012010,
|
||
|
1020102011012011,
|
||
|
1020112011012011,
|
||
|
1020102011012011,
|
||
|
1020102011012010,
|
||
|
1020102011012010,
|
||
|
1020102011012010,
|
||
|
1020112011012011,
|
||
|
1020102011012010,
|
||
|
1020112010201122,
|
||
|
1020102011201020,
|
||
|
1020112010210122,
|
||
|
1020102010210212,
|
||
|
1020102010210120,
|
||
|
1020102210210120,
|
||
|
1020102010210122,
|
||
|
1020102011210120,
|
||
|
102010201101202
|
||
|
#GOGOEND
|
||
|
1,
|
||
|
#END
|