1
0
mirror of synced 2024-12-20 11:25:55 +01:00
OpenTaiko/Test/Songs/01 OpenTaiko Chapter I/040 - Every Night/Every Night.tja

624 lines
6.5 KiB
Plaintext
Raw Normal View History

TITLE:Every Night
SUBTITLE:--DJ NEXTON
BPM:175
OFFSET:-0.001
DEMOSTART:109.715
WAVE:Every Night.ogg
MAKER:Colin & Komi
COURSE:Oni
LEVEL:8
BALLOON:
SCOREINIT:
SCOREDIFF:
NOTESDESIGNER3:Colin & 0AuBSQ
#START
#MEASURE 4/4
1011202000201020,
21220212,
12220212,
12121212,
1011202000201020,
21220212,
12220212,
12121210,
1011202000201020,
21220212,
12220212,
12121212,
1011202000201020,
21220212,
12220212,
10102120,
#GOGOSTART
1020102210201020,
1020102210201010,
1020102210201020,
1020102210201011,
12121212,
1020102010201011,
12121212,
1020102210221011,
12121212,
1020102210201010,
1020102210201020,
1020102210201011,
12121212,
1020102010201011,
12121212,
1012101210201022,
#GOGOEND
1202102010201020,
1202102210201020,
1202102010201020,
1221101210201020,
1202102010201020,
1202102210201020,
1202102010201020,
1221101210200020,
1202102010201020,
1202102210201020,
1202102210201020,
1122101210201020,
1202201010102010,
1202202210102010,
1202201010102010,
#SCROLL 1.5
50000008,
#SCROLL 1
#GOGOSTART
1022102010201020,
1022101210201020,
1022102010201020,
1122101210201010,
1011201010102010,
1021201210102010,
1011202010102010,
2211201210102010,
1011202210201020,
1011201210112010,
1011202010201020,
2211201210102010,
1011201010102010,
1011201210102010,
1011202010201020,
#SCROLL 1.5
#GOGOEND
3000300030111040,
#SCROLL 0.75
10120121,
00210111,
21010111,
21101021,
20120212,
00210120,
10120111,
20101120,
10120121,
00210111,
21010111,
21101021,
20120212,
00210120,
10120111,
10102120,
#SCROLL 1
#GOGOSTART
1020102210201020,
1020102210201011,
1020102210201020,
1020102210201011,
12121212,
1020102010201011,
12121212,
1020102210221011,
12121212,
1020102210201011,
1020102210201020,
1020102210201011,
12121212,
1020102010201011,
1020102010221022,
102010221011202
#GOGOEND
2,
#GOGOSTART
1020102210201020,
1020102210201010,
1020102210201020,
1020102210201011,
12121212,
1020102010201011,
12121212,
1020102210221011,
12121212,
1020102210201010,
1020102210201020,
1020102210201011,
12121212,
1020102010201011,
12121212,
1012101210201022,
#GOGOEND
1011202000201020,
2011202000201020,
12220212,
1020112010201020,
1011202000201020,
2011202000201020,
12220212,
1020112010201000,
1011202000201020,
2011202000201020,
12220212,
1020112010201020,
1011202000201020,
2011202000201020,
12220212,
#BPMCHANGE 175
#MEASURE 8/4
10001000201020000
#SCROLL 3.000000
400000000000000,
#END
COURSE:Hard
LEVEL:6
BALLOON:
SCOREINIT:
SCOREDIFF:
NOTESDESIGNER2:Colin
#START
20120211,
00020122,
12010122,
12101021,
20120221,
00010120,
10120122,
10102120,
20120211,
00020122,
12010122,
12101021,
20120221,
00010120,
10120122,
10102120,
#GOGOSTART
10201120,
1000200010102011,
10201120,
1000200010102011,
10201120,
1000200010102011,
10201120,
1000200010102011,
10201120,
1000200010102011,
10201120,
1000200010102011,
10201120,
1000200010102011,
1010101110101011,
11111122,
#GOGOEND
1000101110101000,
1000101110101000,
1000101110101000,
1000101110101000,
1000101110101000,
1000101110101000,
1000101110101000,
2000222020222020,
1020100010222000,
1020100010222000,
1020100010222000,
1020100010222000,
1020100010222000,
1020100010222000,
1020100010222000,
1020100010222000,
#GOGOSTART
1001101010102000,
1001101010102000,
1001101010102000,
1001101010102000,
1001101010102000,
1001101010102000,
1001101010102000,
1001101010102000,
1001101010102000,
1001101010102000,
1001101010102000,
1001101010102000,
1001101010102000,
1001101010102000,
1001101010102000,
#GOGOEND
3000300030333000,
20120211,
00020122,
12010122,
12101021,
20120221,
00010120,
10120122,
10102120,
20120211,
00020122,
12010122,
12101021,
20120221,
00010120,
10120122,
10102120,
#GOGOSTART
10201120,
1000200010102011,
10201120,
1000200010102011,
10201120,
1000200010102011,
10201120,
1000200010102011,
10201120,
1000200010102011,
10201120,
1000200010102011,
10201120,
1000200010102011,
10201120,
100020001010201
#GOGOEND
1,
#GOGOSTART
10201120,
1000200010102011,
10201120,
1000200010102011,
10201120,
1000200010102011,
10201120,
1000200010102011,
10201120,
1000200010102011,
10201120,
1000200010102011,
10201120,
1000200010102011,
1010101110101011,
11111111,
#GOGOEND
20120211,
00020122,
12010122,
12101021,
20120221,
00010120,
10120122,
10102120,
20120211,
00020122,
12010122,
12101021,
20120221,
00010120,
10120122,
#MEASURE 8/4
10001000201020000400000000000000,
#END
COURSE:Normal
LEVEL:6
BALLOON:
SCOREINIT:
SCOREDIFF:
NOTESDESIGNER1:Colin
#START
20220222,
00020120,
11010110,
1111,
20220222,
00020120,
11010110,
1111,
20220222,
00020120,
11010110,
1111,
20220222,
00020120,
11010110,
,
#GOGOSTART
10201210,
10201211,
10201210,
3333,
10201210,
10201211,
10201210,
3333,
10201210,
10201211,
10201210,
3333,
10201210,
10201211,
50000008,
3333,
#GOGOEND
1111,
1111,
1111,
1111,
1111,
1111,
1111,
1,
12011020,
12011020,
12011020,
12011020,
12011020,
12011020,
12011020,
12011020,
#GOGOSTART
20202220,
20202220,
20202220,
20202220,
20202220,
20202220,
20202220,
20202220,
20202220,
20202220,
20202220,
20202220,
20202220,
20202220,
20202220,
#GOGOEND
0,
20220222,
00020120,
11010110,
1111,
20220222,
00020120,
11010110,
1111,
20220222,
00020120,
11010110,
1111,
20220222,
00020120,
11010110,
,
#GOGOSTART
10201210,
10201211,
10201210,
3333,
10201210,
10201211,
10201210,
3333,
10201210,
10201211,
10201210,
3333,
10201210,
10201211,
50000008,
300030003000300
#GOGOEND
0,
#GOGOSTART
10201210,
10201211,
10201210,
3333,
10201210,
10201211,
10201210,
3333,
10201210,
10201211,
10201210,
3333,
10201210,
10201211,
50000008,
3333,
#GOGOEND
20220222,
00020120,
11010110,
1111,
20220222,
00020120,
11010110,
1111,
20220222,
00020120,
11010110,
1111,
20220222,
00020120,
11010110,
#MEASURE 8/4
00000000000000000400000000000000,
#END
COURSE:Easy
LEVEL:3
BALLOON:
SCOREINIT:
SCOREDIFF:
NOTESDESIGNER0:Colin
#START
2220,
2220,
2220,
2220,
2220,
2220,
2220,
2220,
2220,
2220,
2220,
2220,
2220,
2220,
2220,
,
#GOGOSTART
1020,
1020,
1110,
1110,
1020,
1020,
1110,
1110,
1020,
1020,
1110,
1110,
1020,
1020,
1110,
1110,
#GOGOEND
1010,
1,
1010,
1,
1010,
1,
1010,
1,
1110,
1110,
1110,
1110,
1110,
1110,
1110,
1010,
#GOGOSTART
1200,
1200,
1200,
1200,
1200,
1200,
1200,
2222,
1200,
2200,
2200,
2200,
2200,
2200,
1220,
#GOGOEND
1220,
2220,
2220,
2220,
2220,
2220,
2220,
2220,
2220,
2220,
2220,
2220,
2220,
2220,
2220,
2220,
,
#GOGOSTART
1020,
1020,
1110,
1110,
1020,
1020,
1110,
1110,
1020,
1020,
1110,
1110,
1020,
1020,
1110,
100010001000000
#GOGOEND
0,
#GOGOSTART
1020,
1020,
1110,
1110,
1020,
1020,
1110,
1110,
1020,
1020,
1110,
1110,
1020,
1020,
1110,
1110,
#GOGOEND
2220,
2220,
2220,
2220,
2220,
2220,
2220,
2220,
2220,
2220,
2220,
2220,
2220,
2220,
2220,
#MEASURE 8/4
00000000000000000400000000000000,
#END