1
0
mirror of synced 2024-12-20 11:25:55 +01:00
OpenTaiko/Test/Songs/02 OpenTaiko Chapter II/061 - The Abyss/The Abyss.tja

723 lines
7.6 KiB
Plaintext
Raw Normal View History

TITLE:The Abyss
SUBTITLE:--ok cheez
TITLEJA:The Abyss
SUBTITLEJA:ok cheez
PREIMAGE:The Abyss.jpg
BPM:160
OFFSET:-6.003
DEMOSTART:48.003
WAVE:The Abyss.ogg
MAKER:Colin
COURSE:Oni
LEVEL:9
BALLOON:45
SCOREINIT:
SCOREDIFF:
NOTESDESIGNER3:Colin
#START
#MEASURE 8/4
#SCROLL 0.5
1011011010112010,
1011011010112010,
#MEASURE 4/4
#GOGOSTART
#SCROLL 1
1120201121202121,
2010201021202012,
1011201011202121,
2010201021202012,
1021201011201121,
2010201011202012,
1011201011202121,
2010201022020022,
100100200000200200100000201010200000200100200100,
2010221021202012,
1020221021202121,
2010201022020022,
1120201121202121,
2010201121202012,
1020201021202121,
200000200000100200000100200000200000202020202020,
#MEASURE 8/4
#GOGOEND
#SCROLL 0.5
11001100,
10001000000000001000100000001110,
70,
000000000000000000800000
#SCROLL 1
200200200200222222222222,
#MEASURE 4/4
#GOGOSTART
1120201121202121,
2010201021202012,
1010201021202121,
2010201021202012,
1010201021202121,
2010201021202012,
1010201021202121,
2010201022020020,
1011201022101121,
2011201021202022,
1021201021201121,
2011201021202012,
1011201021201121,
2011201021202012,
1011201021201121,
200000200200000200200000200000200000202020202020,
1011201021202121,
2011201021202012,
1011201021202121,
2011201022022022,
1011201021202121,
2011201021202012,
1011201021202121,
200000200200000200200000200100200000202020202020,
#MEASURE 16/4
#GOGOEND
#SCROLL 0.5
10001000000000000000000000000000000000000000000000000000
#SCROLL 1
00001110,
#MEASURE 4/4
#GOGOSTART
1120221021201121,
2010221021202012,
1011201021202121,
2010201021202012,
1011201021201211,
2010201021202012,
1011201021202121,
2010201022020020,
1011201021201121,
2011201021202012,
1011201021201211,
2011201021202012,
1011201021202121,
2011201021202012,
1011201021202121,
2011201022020020,
1011201021202121,
2011201021202012,
1011201021202121,
2011201021202012,
1011201021202121,
2011201021202012,
1011201021202121,
200000200200000200200000200000200000202020202020,
#MEASURE 8/4
#GOGOEND
#SCROLL 0.5
20020020002020002002002000202000,
20020020002020002002002000201110,
#END
COURSE:Hard
LEVEL:7
BALLOON:50
SCOREINIT:
SCOREDIFF:
NOTESDESIGNER2:Colin
#START
#MEASURE 8/4
#SCROLL 0.5
1011011010112011,
1011011010112010,
#MEASURE 4/4
#GOGOSTART
#SCROLL 1
1010201022201000,
2010201010202220,
1010201022201000,
2010201010202220,
1010201110200010,
20211220,
1010201022201000,
2010201022020020,
1010201022201000,
2010201010202220,
1010201022201000,
2010201022020020,
1010201110200010,
20211220,
1010201022201000,
2020220022050000,
#MEASURE 8/4
#GOGOEND
#SCROLL 0.5
80001100,
10001000000000001000100000001110,
70,
00000000
#SCROLL 1
82225008,
#MEASURE 4/4
#GOGOSTART
1010201000201110,
1010200022202020,
1010201000201110,
1010200022202020,
1010201000201110,
1010200022202020,
1010201000201110,
1010200022020020,
1010200011101020,
1110201022202020,
1000201110102000,
1010200011101020,
1110201022202020,
1000201110102000,
1010200011101020,
1022022020205000,
8010200011200010,
2022202000202000,
1010200011200010,
2022202022020020,
1010200011200010,
2022202000202000,
1010200011200010,
2022022022205000,
#MEASURE 16/4
#GOGOEND
#SCROLL 0.5
80001010000000000000000000000000000000000000000000000000
#SCROLL 1
20001110,
#MEASURE 4/4
#GOGOSTART
1010200022201010,
1010200022201010,
1010200022201010,
1010200022201010,
1010200022201010,
1010200022201010,
1010200022201010,
2000200022020020,
1010200011101000,
2010200022202000,
1010200011101000,
2010200022202000,
1010200011101000,
2010200022202000,
1010200011101000,
2010200022020020,
1010201110200010,
20121220,
1010201110200010,
20121220,
1010201110200010,
20121220,
1010201110200010,
2022022022205000,
#MEASURE 8/4
#GOGOEND
#SCROLL 0.5
80020020002020002002002000202000,
20020020002020002002002000202000,
#END
COURSE:Normal
LEVEL:5
SCOREINIT:
SCOREDIFF:
NOTESDESIGNER1:Colin
#START
1,
1,
1,
1,
#GOGOSTART
2022,
2,
2022,
2,
2022,
2,
2022,
2,
1011,
1,
1011,
1,
1011,
1,
1011,
1,
#GOGOEND
0,
,
,
,
5,
,
0008,
2020,
#GOGOSTART
11102000,
11101000,
11102000,
11101000,
11102000,
11101000,
11102000,
20222020,
2020,
2120,
2020,
11102000,
11101000,
11102000,
11101000,
11102000,
11101000,
11102000,
11101000,
11102000,
11101000,
11102000,
11101000,
11102000,
#MEASURE 16/4
#GOGOEND
#SCROLL 0.5
10000000000000
#SCROLL 1
01,
#MEASURE 4/4
#GOGOSTART
11101000,
11102000,
11101000,
11102000,
11101000,
11102000,
11101000,
11102000,
11101000,
11102000,
11101000,
11102000,
11101000,
11102000,
11101000,
11102000,
11101000,
11102000,
11101000,
11102000,
11101000,
11102000,
11101000,
11102000,
#GOGOEND
2020,
2,
2020,
2,
#END
COURSE:Easy
LEVEL:3
SCOREINIT:
SCOREDIFF:
NOTESDESIGNER0:Colin
#START
1,
1,
1,
1,
#GOGOSTART
2020,
2,
2020,
2,
2020,
2,
2020,
2,
1010,
1,
1010,
1,
1010,
1,
1010,
1,
#GOGOEND
0,
,
,
,
5,
,
0008,
2020,
#GOGOSTART
1120,
1110,
1120,
1110,
1120,
1110,
1120,
2020,
2,
2020,
2,
1120,
1110,
1120,
1110,
1120,
1110,
1120,
1110,
1120,
1110,
1120,
1110,
1120,
#MEASURE 16/4
#GOGOEND
#SCROLL 0.5
10000000000000
#SCROLL 1
01,
#MEASURE 4/4
#GOGOSTART
1110,
1120,
1110,
1120,
1110,
1120,
1110,
1120,
1110,
1120,
1110,
1120,
1110,
1120,
1110,
1120,
1110,
1120,
1110,
1120,
1110,
1120,
1110,
1120,
#GOGOEND
2020,
2,
2020,
2,
#END
COURSE:Hard
LEVEL:7
BALLOON:50
SCOREINIT:
SCOREDIFF:
NOTESDESIGNER2:Colin
#START
10110110,
10112011,
10110110,
10112011,
1010201022201000,
2010201010202220,
1010201022201000,
2010201010202220,
1010201110200010,
20211220,
1010201022201000,
2010201022020020,
1010201022201000,
2010201010202220,
1010201022201000,
2010201022020020,
1010201110200010,
20211220,
1010201022201000,
2020220022050000,
8,
1100,
1100,
1000100000001110,
7,
0,
0,
82225008,
1010201000201110,
1010200022202020,
1010201000201110,
1010200022202020,
1010201000201110,
1010200022202020,
1010201000201110,
1010200022020020,
1010200011101020,
1110201022202020,
1000201110102000,
1010200011101020,
1110201022202020,
1000201110102000,
1010200011101020,
1022022020205000,
8010200011200010,
2022202000202000,
1010200011200010,
2022202022020020,
1010200011200010,
2022202000202000,
1010200011200010,
2022022022205000,
80110000,
0,
0,
0000000020001110,
1010200022201010,
1010200022201010,
1010200022201010,
1010200022201010,
1010200022201010,
1010200022201010,
1010200022201010,
2000200022020020,
1010200011101000,
2010200022202000,
1010200011101000,
2010200022202000,
1010200011101000,
2010200022202000,
1010200011101000,
2010200022020020,
1010201110200010,
20121220,
1010201110200010,
20121220,
1010201110200010,
20121220,
1010201110200010,
2022022022205000,
8002002000202000,
2002002000202000,
2002002000202000,
2002002000202000,
#END
COURSE:Normal
LEVEL:3
BALLOON:
SCOREINIT:
SCOREDIFF:
NOTESDESIGNER1:Colin
#START
1,
1,
1,
1,
2022,
2,
2022,
2,
2022,
2,
2022,
2,
1011,
1,
1011,
1,
1011,
1,
1011,
1,
0,
0,
0,
0,
5,
0,
0008,
22,
11102000,
11101000,
11102000,
11101000,
11102000,
11101000,
11102000,
20222020,
22,
2120,
22,
11102000,
11101000,
11102000,
11101000,
11102000,
11101000,
11102000,
11101000,
11102000,
11101000,
11102000,
11101000,
11102000,
1,
0,
0,
0001,
11101000,
11102000,
11101000,
11102000,
11101000,
11102000,
11101000,
11102000,
11101000,
11102000,
11101000,
11102000,
11101000,
11102000,
11101000,
11102000,
11101000,
11102000,
11101000,
11102000,
11101000,
11102000,
11101000,
11102000,
22,
2,
22,
2,
22,
2,
#END
COURSE:Easy
LEVEL:4
BALLOON:
SCOREINIT:
SCOREDIFF:
NOTESDESIGNER0:Colin
#START
1,
1,
1,
1,
22,
2,
22,
2,
22,
2,
22,
2,
11,
1,
11,
1,
11,
1,
11,
1,
0,
0,
0,
0,
5,
0,
0008,
22,
1120,
1110,
1120,
1110,
1120,
1110,
1120,
22,
2,
22,
2,
1120,
1110,
1120,
1110,
1120,
1110,
1120,
1110,
1120,
1110,
1120,
1110,
1120,
1,
0,
0,
0001,
1110,
1120,
1110,
1120,
1110,
1120,
1110,
1120,
1110,
1120,
1110,
1120,
1110,
1120,
1110,
1120,
1110,
1120,
1110,
1120,
1110,
1120,
1110,
1120,
22,
2,
22,
2,
22,
2,
#END