1
0
mirror of synced 2024-12-21 03:46:04 +01:00
OpenTaiko/Test/Songs/08 OpenTaiko Original/Startup Parade!/Startup Parade!.tja

332 lines
2.8 KiB
Plaintext
Raw Normal View History

TITLE:Startup Parade!
SUBTITLE:--Ryuto Setsujin
BPM:128
WAVE:Startup Parade!.ogg
OFFSET:0
DEMOSTART:0
PREIMAGE:jacket.png
MAKER:bol
COURSE:Oni
LEVEL:5
BALLOON:
SCOREINIT:2890
SCOREDIFF:0
#START
#BARLINEOFF
,
0000000000222010,
#BARLINEON
1020002000200022,
1020002000200022,
1020002000200022,
1020002000200022,
1020002210102020,
1220,
1020002210202020,
2212,
1000201110102020,
1221,
#GOGOSTART
1011202210112022,
5868,
#GOGOEND
1020002210102020,
1220,
1020002210202020,
2212,
1000201110102020,
1221,
#GOGOSTART
1011202210112022,
5868,
1210200022102020,
50804222,
#GOGOEND
10021122,
1000200020222020,
1020002210202020,
2212,
1000201110102020,
1221,
#GOGOSTART
1011202210112022,
5868,
#GOGOEND
1020002210102020,
1220,
1020002210202020,
2212,
1000201110102020,
1221,
#GOGOSTART
1011202210112022,
5868,
#GOGOEND
1020002210221020,
1020002210221020,
1020002210221020,
1020002210221020,
1020002110221020,
1020002110221020,
#GOGOSTART
1120112012201220,
5000802250000080,
#GOGOEND
1012002010201020,
1010221120002000,
3,
,
#END
COURSE:Hard
LEVEL:3
BALLOON:
SCOREINIT:4050
SCOREDIFF:0
#START
#BARLINEOFF
,
,
#BARLINEON
12020202,
12020202,
12020202,
12020202,
10021122,
1110,
10021222,
2220,
10022212,
2220,
#GOGOSTART
30304440,
5858,
#GOGOEND
10021122,
1110,
10021222,
2220,
10022212,
2220,
#GOGOSTART
30304440,
5858,
30303340,
5840,
#GOGOEND
10021122,
1110,
10021222,
2220,
10022212,
2220,
#GOGOSTART
30304440,
5858,
#GOGOEND
10021122,
1110,
10021222,
2220,
10022212,
2220,
#GOGOSTART
30304440,
5858,
#GOGOEND
10011111,
1220,
10011111,
1220,
20022222,
1220,
#GOGOSTART
12021202,
5858,
#GOGOEND
12021212,
12021210,
3,
,
#END
COURSE:Normal
LEVEL:3
BALLOON:
SCOREINIT:6280
SCOREDIFF:0
#START
#BARLINEOFF
,
,
#BARLINEON
1110,
1110,
1110,
1110,
11,
1110,
11,
2220,
11,
1110,
#GOGOSTART
3344,
5858,
#GOGOEND
11,
1110,
11,
2220,
11,
1110,
#GOGOSTART
3344,
5858,
3334,
5840,
#GOGOEND
11,
1110,
11,
2220,
11,
1110,
#GOGOSTART
3344,
5858,
#GOGOEND
11,
1110,
11,
2220,
11,
1110,
#GOGOSTART
3344,
5858,
#GOGOEND
10011010,
2220,
10011010,
2220,
20022020,
1110,
#GOGOSTART
1212,
5858,
#GOGOEND
1011,
1110,
3,
,
#END
COURSE:Easy
LEVEL:1
BALLOON:
SCOREINIT:11300
SCOREDIFF:0
#START
#BARLINEOFF
,
,
#BARLINEON
1,
1,
1,
1,
11,
1,
22,
1,
11,
1,
#GOGOSTART
33,
5008,
#GOGOEND
11,
1,
22,
1,
11,
1,
#GOGOSTART
33,
5008,
34,
58,
#GOGOEND
11,
1,
22,
1,
11,
1,
#GOGOSTART
33,
5008,
#GOGOEND
11,
1,
22,
1,
11,
1,
#GOGOSTART
33,
5008,
#GOGOEND
1011,
22,
1011,
22,
2022,
11,
#GOGOSTART
12,
5008,
#GOGOEND
1,
11,
3,
,
#END