691 lines
7.1 KiB
Plaintext
691 lines
7.1 KiB
Plaintext
|
TITLE:next-level cityscape
|
||
|
SUBTITLE:--Makotora
|
||
|
BPM:150
|
||
|
WAVE:next-level cityscape.ogg
|
||
|
OFFSET:-0.4
|
||
|
DEMOSTART:103.066
|
||
|
MAKER:Komi & Makotora
|
||
|
|
||
|
COURSE:Edit
|
||
|
LEVEL:9
|
||
|
BALLOON:26
|
||
|
SCOREINIT:930
|
||
|
SCOREDIFF:0
|
||
|
|
||
|
#START
|
||
|
10202012,
|
||
|
02010101,
|
||
|
10102012,
|
||
|
01212010,
|
||
|
10112121,
|
||
|
2221,
|
||
|
10121122,
|
||
|
12102010,
|
||
|
|
||
|
10202012,
|
||
|
02010101,
|
||
|
10102012,
|
||
|
01212010,
|
||
|
10112121,
|
||
|
2221,
|
||
|
10121122,
|
||
|
12102010,
|
||
|
|
||
|
1010202210102022,
|
||
|
1010202210102110,
|
||
|
1010202210102022,
|
||
|
1010202210102110,
|
||
|
2012121020121210,
|
||
|
2012121020121210,
|
||
|
2010221120102211,
|
||
|
100100100100100100100100101010101010101010101010,
|
||
|
|
||
|
2,
|
||
|
|
||
|
#GOGOSTART
|
||
|
1011202210112210,
|
||
|
1011202210112210,
|
||
|
1011202210112210,
|
||
|
1011202210112222,
|
||
|
1011202210112210,
|
||
|
1011202210112210,
|
||
|
1011202210112210,
|
||
|
1011202210112110,
|
||
|
|
||
|
1011202210112210,
|
||
|
1011202210112212,
|
||
|
1011202210112210,
|
||
|
1011202210112222,
|
||
|
1011202210112210,
|
||
|
1011202210112212,
|
||
|
1011202210112210,
|
||
|
1011202210112110,
|
||
|
#GOGOEND
|
||
|
|
||
|
1010202210102022,
|
||
|
1010202210102110,
|
||
|
1010202210102022,
|
||
|
1010202210102110,
|
||
|
2012121020121210,
|
||
|
2012121020121210,
|
||
|
100100100100100100100100101010101010101010101010,
|
||
|
200000000000000000000000000000
|
||
|
#SCROLL 7.27
|
||
|
58,
|
||
|
#SCROLL 6.69
|
||
|
68
|
||
|
#SCROLL 8.88
|
||
|
58
|
||
|
#SCROLL 4.20
|
||
|
68
|
||
|
#SCROLL 7.65
|
||
|
58
|
||
|
#SCROLL 10
|
||
|
700000000000000000008000,
|
||
|
|
||
|
#BPMCHANGE 180
|
||
|
#SCROLL 1
|
||
|
20110201102011020110,
|
||
|
20000000100010000000200000001000100000002000000010001000000020000100002000010000,
|
||
|
20000000100010000000200000001000100000002000000010001000000020000100002000010000,
|
||
|
20000000100010000000200000001000100000002000020000000002000020000000002000000000,
|
||
|
20110201102011020110,
|
||
|
20000000100010000000200000001000100000002000000010001000000020000000002000020000,
|
||
|
20000000100010000000200000001000100000002000000010001000000020000200002000020000,
|
||
|
20111001110011100000,
|
||
|
|
||
|
10000000001000010000200000000010000000002000000010001000000020000000002000020000,
|
||
|
10000000001000000000200000001000100000002000000000100000000020000100002000010000,
|
||
|
20000000001000000000200000001000100000002000000000200002000010000100002000010000,
|
||
|
1011202012021012,
|
||
|
10000000001000010000200000000010000000002000000010001000000020000000002000020000,
|
||
|
10000000001000000000200000001000100000002000000000100000000020000100002000010000,
|
||
|
20000000001000000000200000001000100000002000000000200002000010000100002000010000,
|
||
|
11212121,
|
||
|
|
||
|
58
|
||
|
#SCROLL 2
|
||
|
58
|
||
|
#SCROLL 3
|
||
|
58
|
||
|
#SCROLL 4
|
||
|
58
|
||
|
#SCROLL 5
|
||
|
58
|
||
|
#SCROLL 6
|
||
|
58
|
||
|
#SCROLL 7
|
||
|
58
|
||
|
#SCROLL 8
|
||
|
58
|
||
|
#SCROLL 9
|
||
|
58
|
||
|
#SCROLL 10
|
||
|
58
|
||
|
#SCROLL 8.2
|
||
|
58
|
||
|
#SCROLL 6.4
|
||
|
58
|
||
|
#SCROLL 4.6
|
||
|
58
|
||
|
#SCROLL 2.8
|
||
|
580000,
|
||
|
|
||
|
#GOGOSTART
|
||
|
#SCROLL 1
|
||
|
200100200111200100100200,
|
||
|
100000200200100000100000200000100000100000101010,
|
||
|
2010201120101020,
|
||
|
1022101020101011,
|
||
|
200100200111200100100200,
|
||
|
100000200200100000100000200000100000200000101010,
|
||
|
2010201120101020,
|
||
|
1022101020101011,
|
||
|
|
||
|
200100200111200100200200,
|
||
|
1022102020102022,
|
||
|
2010202220102020,
|
||
|
1022102020102022,
|
||
|
2010202220102020,
|
||
|
1022102020102022,
|
||
|
2010202220102020,
|
||
|
1022201020102222,
|
||
|
|
||
|
1010202210102022,
|
||
|
1010202210102121,
|
||
|
2010202210102022,
|
||
|
1010202210102122,
|
||
|
2012121020121210,
|
||
|
2012121020121222,
|
||
|
100100100100100100100100101010101010101010101010,
|
||
|
200000100000100000100111,
|
||
|
#GOGOEND
|
||
|
|
||
|
2,
|
||
|
#END
|
||
|
|
||
|
|
||
|
COURSE:Oni
|
||
|
LEVEL:7
|
||
|
BALLOON:26
|
||
|
SCOREINIT:1280
|
||
|
SCOREDIFF:0
|
||
|
|
||
|
#START
|
||
|
10202012,
|
||
|
02010101,
|
||
|
10102012,
|
||
|
01212010,
|
||
|
10112121,
|
||
|
2221,
|
||
|
10121122,
|
||
|
12102010,
|
||
|
|
||
|
10202012,
|
||
|
02010101,
|
||
|
10102012,
|
||
|
01212010,
|
||
|
10112121,
|
||
|
2221,
|
||
|
10121122,
|
||
|
12102010,
|
||
|
|
||
|
1212,
|
||
|
1000200010002110,
|
||
|
1212,
|
||
|
1000200010002110,
|
||
|
21112111,
|
||
|
21112111,
|
||
|
21212121,
|
||
|
1111111150000080,
|
||
|
|
||
|
4,
|
||
|
|
||
|
#GOGOSTART
|
||
|
1011202210002000,
|
||
|
1011202210102000,
|
||
|
1011202210002000,
|
||
|
1011202210102000,
|
||
|
1011202210002000,
|
||
|
1011202210102000,
|
||
|
1011202210002000,
|
||
|
1011202210102010,
|
||
|
|
||
|
1011202210002001,
|
||
|
1011202210102011,
|
||
|
1011202210002001,
|
||
|
1011202210102011,
|
||
|
1011202210002001,
|
||
|
1011202210102011,
|
||
|
1011202210002001,
|
||
|
1011202210102010,
|
||
|
#GOGOEND
|
||
|
|
||
|
1212,
|
||
|
1000200010002110,
|
||
|
1212,
|
||
|
1000200010002110,
|
||
|
21112111,
|
||
|
21112111,
|
||
|
1111111150000080,
|
||
|
400000000000000000000000000000
|
||
|
#SCROLL 7.27
|
||
|
58,
|
||
|
#SCROLL 6.69
|
||
|
68
|
||
|
#SCROLL 8.88
|
||
|
58
|
||
|
#SCROLL 4.2
|
||
|
68
|
||
|
#SCROLL 7.65
|
||
|
58
|
||
|
#SCROLL 10
|
||
|
700000000000000000008000,
|
||
|
|
||
|
#BPMCHANGE 180
|
||
|
#SCROLL 1
|
||
|
21212121,
|
||
|
21212122,
|
||
|
21212122,
|
||
|
2010201022022020,
|
||
|
21212121,
|
||
|
2010201020102022,
|
||
|
2010201020102222,
|
||
|
2,
|
||
|
|
||
|
1011201020102022,
|
||
|
11212122,
|
||
|
2010201020221020,
|
||
|
1011202012021010,
|
||
|
1011201020102022,
|
||
|
1010201020102022,
|
||
|
2010201020102222,
|
||
|
2202,
|
||
|
|
||
|
58
|
||
|
#SCROLL 2
|
||
|
58
|
||
|
#SCROLL 3
|
||
|
58
|
||
|
#SCROLL 4
|
||
|
58
|
||
|
#SCROLL 5
|
||
|
58
|
||
|
#SCROLL 6
|
||
|
58
|
||
|
#SCROLL 7
|
||
|
58
|
||
|
#SCROLL 8
|
||
|
58
|
||
|
#SCROLL 9
|
||
|
58
|
||
|
#SCROLL 10
|
||
|
58
|
||
|
#SCROLL 8.2
|
||
|
58
|
||
|
#SCROLL 6.4
|
||
|
58
|
||
|
#SCROLL 4.6
|
||
|
58
|
||
|
#SCROLL 2.8
|
||
|
580000,
|
||
|
|
||
|
#GOGOSTART
|
||
|
#SCROLL 1
|
||
|
2010201120001020,
|
||
|
1022101020100011,
|
||
|
2010201120001020,
|
||
|
1022101020100011,
|
||
|
2010201120001020,
|
||
|
1022101020100011,
|
||
|
2010201120001020,
|
||
|
1022101020100011,
|
||
|
|
||
|
2010202220201020,
|
||
|
1022101020102022,
|
||
|
1010202220201020,
|
||
|
1022101020102022,
|
||
|
1010202220201020,
|
||
|
1022101020102022,
|
||
|
1010202220201020,
|
||
|
1022201020102222,
|
||
|
|
||
|
1212,
|
||
|
1000200010002110,
|
||
|
1212,
|
||
|
1000200010002111,
|
||
|
21112111,
|
||
|
2010101020101111,
|
||
|
50000008,
|
||
|
4000100010001011,
|
||
|
#GOGOEND
|
||
|
|
||
|
2,
|
||
|
#END
|
||
|
|
||
|
COURSE:Hard
|
||
|
LEVEL:5
|
||
|
BALLOON:12
|
||
|
SCOREINIT:1820
|
||
|
SCOREDIFF:0
|
||
|
|
||
|
#START
|
||
|
10002022,
|
||
|
02020200,
|
||
|
10002022,
|
||
|
02222020,
|
||
|
10002220,
|
||
|
2222,
|
||
|
10220220,
|
||
|
11102020,
|
||
|
|
||
|
10002022,
|
||
|
02020200,
|
||
|
10002022,
|
||
|
02222020,
|
||
|
10002220,
|
||
|
2222,
|
||
|
10220220,
|
||
|
11102020,
|
||
|
|
||
|
1202,
|
||
|
1000200000002220,
|
||
|
1202,
|
||
|
1000200000002220,
|
||
|
20112011,
|
||
|
20112011,
|
||
|
20212120,
|
||
|
50000008,
|
||
|
|
||
|
4,
|
||
|
|
||
|
#GOGOSTART
|
||
|
10221020,
|
||
|
11221020,
|
||
|
10221020,
|
||
|
11221020,
|
||
|
10221020,
|
||
|
11221020,
|
||
|
10221020,
|
||
|
11221120,
|
||
|
|
||
|
1000202010002001,
|
||
|
1010202010002011,
|
||
|
1000202010002001,
|
||
|
1010202010002011,
|
||
|
1000202010002001,
|
||
|
1010202010002011,
|
||
|
1000202010002001,
|
||
|
11221120,
|
||
|
#GOGOEND
|
||
|
|
||
|
1202,
|
||
|
1000200000002220,
|
||
|
1202,
|
||
|
1000200000002220,
|
||
|
20112011,
|
||
|
20112011,
|
||
|
50000008,
|
||
|
4,
|
||
|
|
||
|
00
|
||
|
#SCROLL 10
|
||
|
700008,
|
||
|
|
||
|
#BPMCHANGE 180
|
||
|
#SCROLL 1
|
||
|
20212021,
|
||
|
20212022,
|
||
|
20212022,
|
||
|
2000200022022020,
|
||
|
20212021,
|
||
|
2000201020002022,
|
||
|
2000201020002222,
|
||
|
2,
|
||
|
|
||
|
10212022,
|
||
|
10212022,
|
||
|
20212012,
|
||
|
1000202011011010,
|
||
|
10212022,
|
||
|
1000201020002022,
|
||
|
2000201020002222,
|
||
|
2202,
|
||
|
|
||
|
#SCROLL 2
|
||
|
6008,
|
||
|
|
||
|
#GOGOSTART
|
||
|
#SCROLL 1
|
||
|
20212012,
|
||
|
10112101,
|
||
|
20212012,
|
||
|
10112101,
|
||
|
20212012,
|
||
|
10112101,
|
||
|
20212012,
|
||
|
10112101,
|
||
|
|
||
|
2000202220201000,
|
||
|
12102120,
|
||
|
1000202220201000,
|
||
|
12102120,
|
||
|
1000202220201000,
|
||
|
12102120,
|
||
|
1000202220201000,
|
||
|
1000201020102220,
|
||
|
|
||
|
1212,
|
||
|
1000200010002220,
|
||
|
1212,
|
||
|
1000200010002220,
|
||
|
20112011,
|
||
|
20112011,
|
||
|
50000008,
|
||
|
40101011,
|
||
|
#GOGOEND
|
||
|
|
||
|
2,
|
||
|
#END
|
||
|
|
||
|
COURSE:Normal
|
||
|
LEVEL:5
|
||
|
BALLOON:8
|
||
|
SCOREINIT:2970
|
||
|
SCOREDIFF:0
|
||
|
|
||
|
#START
|
||
|
10002002,
|
||
|
02020200,
|
||
|
10002002,
|
||
|
02022020,
|
||
|
1020,
|
||
|
2222,
|
||
|
10020020,
|
||
|
11102020,
|
||
|
|
||
|
10002002,
|
||
|
02020200,
|
||
|
10002002,
|
||
|
02202020,
|
||
|
1020,
|
||
|
2222,
|
||
|
10020020,
|
||
|
11102020,
|
||
|
|
||
|
1202,
|
||
|
10200022,
|
||
|
1202,
|
||
|
10200022,
|
||
|
2121,
|
||
|
2121,
|
||
|
2222,
|
||
|
50000008,
|
||
|
|
||
|
4,
|
||
|
|
||
|
#GOGOSTART
|
||
|
1212,
|
||
|
10111000,
|
||
|
1212,
|
||
|
10222000,
|
||
|
1212,
|
||
|
10111000,
|
||
|
1212,
|
||
|
10222000,
|
||
|
|
||
|
1212,
|
||
|
10111000,
|
||
|
1212,
|
||
|
10222000,
|
||
|
1212,
|
||
|
10111000,
|
||
|
1212,
|
||
|
10222000,
|
||
|
#GOGOEND
|
||
|
|
||
|
1202,
|
||
|
10200022,
|
||
|
1202,
|
||
|
10200022,
|
||
|
2121,
|
||
|
2121,
|
||
|
50000008,
|
||
|
4,
|
||
|
|
||
|
00700008,
|
||
|
|
||
|
#BPMCHANGE 180
|
||
|
1110,
|
||
|
1110,
|
||
|
1110,
|
||
|
10101110,
|
||
|
1110,
|
||
|
1110,
|
||
|
10101011,
|
||
|
1,
|
||
|
|
||
|
1202,
|
||
|
1202,
|
||
|
1202,
|
||
|
10201110,
|
||
|
1202,
|
||
|
1202,
|
||
|
10200022,
|
||
|
2202,
|
||
|
|
||
|
#SCROLL 2
|
||
|
6008,
|
||
|
|
||
|
#GOGOSTART
|
||
|
#SCROLL 1
|
||
|
2020,
|
||
|
1110,
|
||
|
2020,
|
||
|
10111000,
|
||
|
2020,
|
||
|
1110,
|
||
|
2020,
|
||
|
10111000,
|
||
|
|
||
|
2220,
|
||
|
1110,
|
||
|
1210,
|
||
|
2120,
|
||
|
2220,
|
||
|
1110,
|
||
|
2120,
|
||
|
1210,
|
||
|
|
||
|
1202,
|
||
|
10200022,
|
||
|
1202,
|
||
|
10200022,
|
||
|
2121,
|
||
|
2121,
|
||
|
50000008,
|
||
|
4111,
|
||
|
#GOGOEND
|
||
|
|
||
|
4,
|
||
|
#END
|
||
|
|
||
|
COURSE:Easy
|
||
|
LEVEL:4
|
||
|
BALLOON:10
|
||
|
SCOREINIT:5130
|
||
|
SCOREDIFF:0
|
||
|
|
||
|
#START
|
||
|
1,
|
||
|
,
|
||
|
1,
|
||
|
01,
|
||
|
1,
|
||
|
,
|
||
|
1,
|
||
|
01,
|
||
|
|
||
|
1,
|
||
|
,
|
||
|
1,
|
||
|
01,
|
||
|
1,
|
||
|
,
|
||
|
1,
|
||
|
01,
|
||
|
|
||
|
1,
|
||
|
1,
|
||
|
1,
|
||
|
1,
|
||
|
22,
|
||
|
22,
|
||
|
2222,
|
||
|
5,
|
||
|
|
||
|
8,
|
||
|
|
||
|
#GOGOSTART
|
||
|
21,
|
||
|
11,
|
||
|
22,
|
||
|
2022,
|
||
|
21,
|
||
|
11,
|
||
|
22,
|
||
|
2022,
|
||
|
|
||
|
21,
|
||
|
11,
|
||
|
22,
|
||
|
2022,
|
||
|
21,
|
||
|
11,
|
||
|
22,
|
||
|
2022,
|
||
|
#GOGOEND
|
||
|
|
||
|
1,
|
||
|
1,
|
||
|
1,
|
||
|
1,
|
||
|
22,
|
||
|
22,
|
||
|
5,
|
||
|
8,
|
||
|
|
||
|
7008,
|
||
|
|
||
|
#BPMCHANGE 180
|
||
|
22,
|
||
|
2022,
|
||
|
2022,
|
||
|
2022,
|
||
|
22,
|
||
|
2022,
|
||
|
2022,
|
||
|
2,
|
||
|
|
||
|
1110,
|
||
|
1110,
|
||
|
1110,
|
||
|
1011,
|
||
|
1011,
|
||
|
1011,
|
||
|
1011,
|
||
|
1,
|
||
|
|
||
|
5008,
|
||
|
|
||
|
#GOGOSTART
|
||
|
1022,
|
||
|
21,
|
||
|
1022,
|
||
|
21,
|
||
|
1022,
|
||
|
21,
|
||
|
1022,
|
||
|
21,
|
||
|
|
||
|
1022,
|
||
|
21,
|
||
|
1022,
|
||
|
21,
|
||
|
1022,
|
||
|
21,
|
||
|
1022,
|
||
|
2011,
|
||
|
|
||
|
11,
|
||
|
1011,
|
||
|
11,
|
||
|
11,
|
||
|
2222,
|
||
|
2222,
|
||
|
5,
|
||
|
8011,
|
||
|
#GOGOEND
|
||
|
|
||
|
2,
|
||
|
#END
|