1
0
mirror of synced 2024-12-21 11:55:59 +01:00
OpenTaiko/Test/Songs/08 OpenTaiko Original/004 - Deceiving The Deceiver/DeceivingTheDeceiver.tja

722 lines
8.2 KiB
Plaintext
Raw Normal View History

TITLE:Deceiving the Deceiver
SUBTITLE:--H5
WAVE:DeceivingTheDeceiver.ogg
BPM:175
OFFSET:-0
DEMOSTART:44.227
COURSE:Edit
LEVEL:9
BALLOON:25,40
SCOREINIT:940
SCOREDIFF:0
#START
#BARLINEOFF
#MEASURE 1/4
0022,
#BARLINEON
#MEASURE 4/4
20020010,
00000012,
1000000000000011,
2000001000000022,
10000012,
20010020,
1000000000000011,
20020010,
12121210,
1021102110201000,
1020102110201000,
1120102110201000,
12121210,
1021102110201000,
1020102110201000,
20002000111010102000200000001010,
0000202022022022,
2020220220202022,
2020220220202022,
2020220220202222,
2020220220202022,
2020220220202022,
2020220220202022,
2020102011101020,
1011202010112020,
1011202010112020,
1021102010211020,
1021102010211020,
2011201020112010,
2011201020112010,
1021102010211020,
1020102011221122,
#GOGOSTART
1010120120112020,
1010120120112020,
1020120120112020,
1020210210112010,
1010120120112020,
1010120120112020,
1020120120112020,
1020210210211010,
#GOGOEND
2020020020020020,
0020020020020020,
#GOGOSTART
1020120120112020,
1020210210112010,
1010120120112020,
1010120120112020,
1020120120112020,
1020210210112121,
#GOGOEND
0011202010112020,
1011202010112020,
1021102010211020,
1021102010211020,
2011201020112010,
2011201020112010,
1021102010211020,
1122112211221122,
11220000,
0000002220020020,
10020020,
12001200,
11220000,
0000002220020020,
10020022,
1020001011112222,
00
#SCROLL 3
30030030030030,
#SCROLL 1
1010201110201212,
00
#SCROLL 3
30030030030030,
#SCROLL 1
1211201211202222,
00
#SCROLL 3
30030030030030,
#SCROLL 1
1010201110201212,
00
#SCROLL 3
30030030030030,
#SCROLL 1
1211201211202222,
0010010020020012,
0010010020020012,
2010010020020012,
0010010020020012,
2012102110121021,
2012102110121021,
22222222,
2222222222222222,
7,
0008,
#GOGOSTART
1020120120112020,
1020210210112012,
1010120120112022,
1010120120112020,
1020120120112020,
10
#SCROLL 3
40040040040040,
#SCROLL 1
1010120120112022,
1010120120112020,
1020120120112020,
1020210210112021,
1010120120112122,
1010120120112120,
1020120120112120,
20201010202010102020101011101110,
#GOGOEND
200020002000200020002000200000000000100000000000000000000000000000000000200200200000200000200000,
20000000000000000000000022022020,
2000000000000022,
1111112000000011,
20000011,
20010020,
5000800000000022,
7,
,
8,
#END
COURSE:Oni
LEVEL:8
BALLOON:19,39
SCOREINIT:1050
SCOREDIFF:0
NOTEDESIGNER3:bol
#START
#BARLINEOFF
#MEASURE 1/4
0022,
#BARLINEON
#MEASURE 4/4
20020010,
00000012,
1000000000000011,
2000001000000022,
10000012,
20010020,
1000000000000011,
20020010,
12121210,
12121210,
12121210,
12121210,
12121210,
12121210,
12121210,
200000200000101010100100200000000200000000200200,
0000302210201022,
1020102210201011,
1020102210201022,
1020102212022000,
1020102210201022,
1020102210201011,
1020102210201022,
1020102212022020,
31122112,
21122112,
11122112,
21121212,
11122112,
21122112,
11122112,
1010101011111111,
#GOGOSTART
0020120120120120,
0020120120120120,
0020120120120220,
0020120120220121,
0020120120120120,
0020120120120120,
0020120120120220,
0020120120220210,
#GOGOEND
32020202,
02020201,
#GOGOSTART
3020120120120220,
0020120120220121,
0020120120120120,
0020120120120120,
0020120120120220,
1010101011101111,
#GOGOEND
11122112,
21122112,
11122112,
21121212,
11122112,
21122112,
11111111,
1111111150000080,
31220000,
0000002220020020,
10020020,
12001200,
11220000,
0000002220020020,
12020202,
1010101011101111,
0030030030030030,
1010201110201212,
0030030030030030,
1110201110202222,
0030030030030030,
1010201110201212,
0030030030030030,
2011102010202222,
1020002000200022,
0020002000200022,
1020002000200022,
0020002000200022,
1022102210221022,
1022102210221022,
11111111,
1111111111111111,
7,
0008,
#GOGOSTART
1020120120120220,
0020120120220121,
0020120120120120,
0020120120120120,
0020120120120220,
1040040040040040,
1020120120120120,
0020120120120120,
0020120120120220,
0020120120220121,
1020120120120120,
1020120120120120,
1020121010201210,
2211221122115080,
#GOGOEND
202020202020200000100000000000000000200200200200,
2000000000002022,
2000000000000022,
1111112000000011,
20000011,
20010020,
5000800000000022,
7,
,
8,
#END
COURSE:Hard
LEVEL:6
BALLOON:19,2,22
SCOREINIT:1450
SCOREDIFF:0
#START
#BARLINEOFF
#MEASURE 1/4
0022,
#BARLINEON
#MEASURE 4/4
20020010,
00000012,
1000000000000022,
2000001000000011,
10000012,
20010020,
1000000000000022,
20020010,
12121210,
11122210,
22211120,
12121210,
11122220,
12221120,
12121210,
22112200,
11120212,
02120222,
11220212,
02121112,
01120212,
02120212,
11220212,
01221101,
11120212,
02120212,
11220212,
02121112,
01120212,
02120212,
11220212,
12125008,
#GOGOSTART
1010020020010020,
1010020020010020,
1020020020010020,
1020010010010010,
1010020020010020,
1010020020010020,
1020020020010020,
1020010020010010,
#GOGOEND
2020020020020020,
0020020020020020,
#GOGOSTART
1020020020010020,
1020010010010010,
1010020020010020,
1010020020010020,
1020020020010020,
1020010020111010,
#GOGOEND
01120212,
02120212,
11220212,
02121112,
01120212,
02120212,
11220212,
50085008,
11220000,
0000002220020020,
10020020,
12001200,
11220000,
0000002220020020,
10020022,
22001122,
0030030030030030,
0010101110201010,
0030030030030030,
0010101010202222,
0030030030030030,
0010101110201010,
0030030030030030,
0010101010202222,
0010010020020012,
0010010020020012,
0010010020020012,
0010010020020012,
0012001200120012,
0012001200120012,
02222222,
50000008,
7,
0008,
#GOGOSTART
1020020020010020,
1020010010010011,
1010020020020022,
2010020020010020,
1020020020010020,
1040040040040040,
1010020020020022,
2010020020010020,
1020020020010020,
1020010010010010,
1010020020010020,
1010020020010020,
1020020020010020,
1020010010011110,
#GOGOEND
5000801000002222,
2000000000002222,
2000000000000022,
7000802000000011,
10000011,
20010020,
5000800000000022,
7,
,
8,
#END
COURSE:Normal
LEVEL:6
BALLOON:2,19,2,2,22
SCOREINIT:1960
SCOREDIFF:0
#START
#MEASURE 1/4
#BARLINEOFF
,
#BARLINEON
#MEASURE 4/4
20020010,
0001,
1,
20010000,
1001,
20020020,
1,
20020010,
1111,
1111,
1111,
1111,
1111,
1111,
1111,
22,
10200222,
02220102,
02220222,
01120202,
02220222,
02220201,
01120222,
01021101,
01120222,
02220201,
01120222,
02220201,
01120222,
02220201,
01120222,
02225008,
#GOGOSTART
1010020020010020,
0010020020010020,
0020020020010020,
0020010010010010,
0010020020010020,
0010020020010020,
0020020020010020,
0020010020010010,
#GOGOEND
0020020020020020,
0020020020020020,
#GOGOSTART
1020020020010020,
0020010010010010,
0010020020010020,
0010020020010020,
0020020020010020,
0020010020700080,
#GOGOEND
01120222,
02220201,
01120222,
02220201,
01120222,
02220201,
01120222,
50085008,
10220000,
0000000020020020,
00020020,
02001200,
10220000,
0000000020020020,
00020022,
02001122,
0030030030030030,
,
0030030030030030,
,
0030030030030030,
,
0030030030030030,
,
0010010020020002,
0010010020020002,
0010010020020002,
0010010020020002,
0002000200020002,
0002000200020002,
02222222,
50000008,
7,
0008,
#GOGOSTART
1020020020010020,
0020010010010010,
0010020020010020,
0010020020010020,
0020020020010020,
0040040040040040,
0010020020010020,
0010020020010020,
0020020020010020,
0020010010010010,
0010020020010020,
0010020020010020,
0020020020010020,
0020010020700080,
#GOGOEND
50810020,
00000022,
20000002,
70820000,
10000011,
20010020,
50800002,
7,
,
8,
#END
COURSE:Easy
LEVEL:4
BALLOON:2,8,19,2,22
SCOREINIT:3510
SCOREDIFF:0
#START
#BARLINEOFF
#MEASURE 1/4
,
#BARLINEON
#MEASURE 4/4
20020010,
,
1,
20010000,
1,
20010020,
1,
20020010,
11,
11,
11,
11,
11,
11,
11,
22,
10200002,
00020002,
00020002,
00020002,
00020002,
00020002,
00020002,
01001001,
00020002,
00020002,
01020002,
00020102,
00020002,
00020002,
01020002,
02025008,
#GOGOSTART
01002002,
01002002,
02002002,
02001001,
01002002,
01002002,
02002002,
02002001,
#GOGOEND
02002002,
02002002,
#GOGOSTART
02002002,
02001001,
01002002,
01002002,
02002002,
0020010020700080,
#GOGOEND
00020002,
00020002,
01020002,
00020102,
00020002,
00020002,
01025008,
50085008,
10020000,
00002002,
00020020,
02000200,
10020000,
00002002,
00020002,
02001002,
03003003,
,
03003003,
,
03003003,
,
03003003,
,
0010000000020002,
0010000000020002,
0010000000020002,
0010000000020002,
0002000200020002,
0002000200020002,
07000008,
50000008,
7,
0008,
#GOGOSTART
02002002,
02001001,
01002002,
01002002,
02002002,
04004004,
01002002,
01002002,
02002002,
02001001,
01002002,
01002002,
02002002,
0020010020700080,
#GOGOEND
50810020,
0002,
20000002,
00020000,
1001,
20010020,
50800002,
7,
,
8,
#END