TITLE:PYRΔMiD
SUBTITLE:--TFD500
BPM:200
OFFSET:0
DEMOSTART:76.8
WAVE:PYRAMID.ogg
PREIMAGE:PYRAMID.png
MAKER:Colin & bol

COURSE:Oni
LEVEL:9
BALLOON:30
SCOREINIT:1300
SCOREDIFF:0
NOTESDESIGNER3:Colin affected by bol
#START
#MEASURE 8/4
#SCROLL 0.5
1120000000000000
0000000000000000,
1120000000000000
0000000000000000,
1120000000000000
0000000000000000,
1120000000000000
0000000000000000,
10010010
00000000,
1120000000000000
0000000000000000,
10010010
00101010,
1120000000000000
0000000000000000,
10010010
00101010,
1120000000101010
0000100010002000,
1120002000002000
0000000000102010,
1120000000000000
0000100010001000,
1120002000002000
0000200020002000,
1120000000101010
0000200020002000,
1120001000001000
0000000000101010,
1120000000000000
0000100010001000,
#MEASURE 4/4
#SCROLL 1
11211120,
11211110,
11211111,
12121210,
11211110,
11111120,
11211112,
1012101011101011,
1120102010102000,
22121210,
1120101010201020,
12121210,
1120102010201000,
12121210,
1120101010201020,
12121210,
#MEASURE 8/4
#SCROLL 0.5
10010020
20000000,
10010020
20000020,
10010010
20000000,
10010010
10001000,
10020010
20000000,
10020010
20000020,
10020010
20000010,
10020010
10001000,
#MEASURE 4/4
#GOGOSTART
#SCROLL 1
1122102012021210,
2010120212102010,
1122102012021210,
2020102011221020,
1122102012021210,
2010120212101020,
1122101012021210,
1021202022112010,
1122102012021210,
2010120212102010,
1122102012021210,
2020102011221020,
1122102012021210,
2010120212101020,
1122101012021210,
2020102021212010,
1120100010001022,
1000102210112210,
1120102010201020,
1020102022102120,
1122201011201120,
2111211121112111,
200000200200100000200200100000002000100010001000,
2021202021201111,
1120100010101122,
1020101022112010,
1120100122102210,
111222111222,
1022201010201020,
12121211,
100100200100200000101010200000100000200200100000,
100100100100100100100100100100100100100100101010,
#GOGOEND
#MEASURE 8/4
10010010
10000000,
10010010
10000020,
10010010
10000000,
20010010
10002000,
#SCROLL 0.5
10010010
10000000,
10010010
10000020,
10010010
10000000,
20010020
20202020,
7,
8,
#END

COURSE:Hard
LEVEL:5
BALLOON:15,30,30
SCOREINIT:2270
SCOREDIFF:0
NOTESDESIGNER2:Colin
#START
#MEASURE 8/4
#SCROLL 0.5
5800000000000000,
5800000000000000,
5800000000000000,
5800000000000000,
1001001000000000,
5800000000000000,
1001001000101010,
5800000000000000,
1001001000101010,
5800011100101020,
5802002000000121,
5800000000101010,
5802002000202020,
5800011100202020,
5801001000000111,
5800000000101010,
#MEASURE 4/4
#SCROLL 1
11210120,
11210110,
11201110,
12101210,
11210110,
11101020,
10210112,
1000101011101000,
1110002010100000,
22101210,
12101210,
12101210,
12101210,
12101210,
12101201,
12121210,
#MEASURE 8/4
#SCROLL 0.5
1001002020000000,
1001002020000020,
1001001020000000,
1001001010001000,
1002001020000000,
1002001020000020,
1002001020000010,
1002001010001000,
#MEASURE 4/4
#GOGOSTART
#SCROLL 1
1000101022201000,
1020100022202020,
1000101022201000,
1020100022202020,
1000101022201000,
1020100022202020,
1000101022201000,
1020100022202020,
1000101022201000,
1020100022202020,
1000101022201000,
1020100022202020,
1000101022201000,
1020100022202020,
1000101022201000,
5,
8111,
10101011,
1111,
1000100011101010,
1111,
70000008,
7,
00000008,
2000200020002022,
20202022,
2222,
2250,
,
,
,
0008,
#MEASURE 8/4
#GOGOEND
#SCROLL 0.5
1011101010000000,
1001001010000000,
1001001010000000,
2001001010002000,
1001001010000000,
1001001010000020,
1001001010000000,
2001002020202020,
70,
80,
#END

COURSE:Normal
LEVEL:3
BALLOON:
SCOREINIT:4850
SCOREDIFF:0
NOTESDESIGNER1:Colin
#START
#MEASURE 8/4
#SCROLL 0.5
5800000000000000,
5800000000000000,
5800000000000000,
5800000000000000,
1001001000000000,
5800000000000000,
1001001000000000,
5800000000000000,
11,
10,
11,
10,
10101000,
,
10101000,
,
11102220,
12101110,
22201210,
11101110,
20202022,
20222022,
10101011,
10101111,
11,
11,
11,
11,
22,
22,
22,
22,
#GOGOSTART
11111010,
11111010,
11111010,
11111010,
11111010,
11111010,
22222020,
22222000,
22202220,
12101110,
11101110,
22201110,
22202220,
11102220,
11101110,
22222020,
#GOGOEND
10,
10,
10,
10,
10,
10,
10,
11,
10,
#END

COURSE:Easy
LEVEL:2
BALLOON:
SCOREINIT:8740
SCOREDIFF:0
NOTESDESIGNER0:Colin
#START
#MEASURE 8/4
#SCROLL 0.5
5800000000000000,
5800000000000000,
5800000000000000,
5800000000000000,
1001001000000000,
5800000000000000,
1001001000000000,
5800000000000000,
11,
10,
11,
10,
10101000,
,
10101000,
,
10101000,
10101000,
20202000,
10101000,
10101000,
10101000,
20202000,
10101000,
20,
20,
20,
22,
20,
20,
20,
22,
#GOGOSTART
11,
10101000,
22,
20202000,
11,
10101000,
22,
20202000,
11,
10001010,
12,
22,
22,
12,
12,
12,
#GOGOEND
11,
11,
11,
22,
11,
11,
11,
22,
20,
#END
