TITLE:NEKROS
SUBTITLE:--GRYSCL
PREIMAGE:GRYSCL.jpg
BPM:200
OFFSET:0
DEMOSTART:120.000
WAVE:GRYSCL.ogg
MAKER:Colin & Komi

COURSE:Edit
LEVEL:11.0
BALLOON:8,9,10
#START
#MEASURE 4/4
0,
#SCROLL 0.750000
2121,
2111,
2112,
2121,
2121,
2222,
1122,
2121,
11212111,
21122111,
11212122,
21122111,
11212111,
21122122,
11212122,
11121111,
#MEASURE 1/4
#SCROLL 0.500000
0,
0,
#SCROLL 0.550000
0,
0,
#SCROLL 0.600000
0,
0,
#SCROLL 0.650000
0,
0,
#SCROLL 0.700000
0,
0,
#SCROLL 0.750000
0,
0,
#SCROLL 0.800000
0,
0,
#SCROLL 0.850000
0,
0,
#SCROLL 0.900000
1,
1,
#SCROLL 0.950000
1,
1,
#SCROLL 1.000000
1,
1,
#SCROLL 1.050000
1,
1,
#SCROLL 1.100000
11,
11,
#SCROLL 1.150000
11,
11,
#MEASURE 4/4
#SCROLL 1.200000
201010202112
#SCROLL 1.160000
2
#SCROLL 1.120000
2
#SCROLL 1.080000
1
#SCROLL 1.040000
1,
#SCROLL 1.000000
#GOGOSTART
1010201021211020,
2121202021211010,
1010201021212020,
11121211,
1010201021211020,
2121202021222010,
1010201021212020,
11121212,
1010201021211020,
2121202021211010,
1010201021212020,
11121211,
1010201021211020,
2121202021222010,
1010201021212020,
1010102010202222,
#GOGOEND
100000100000200000200000101010200000200000100100,
100100100000100100101010200000100000101010200000,
100000101010100000200000101010200000200000100100,
100100100000100100101010200000100000101010200000,
100000100000200000200000101010200000200000100100,
100100100000100100101010200000100000101010200000,
100000101010100000200000101010200000200000100100,
100100100000100100101010200200200200200200200200,
#MEASURE 1/8
#SCROLL 1.000000
1,
#SCROLL 0.980000
1,
#SCROLL 0.960000
2,
#SCROLL 0.940000
1,
#SCROLL 0.920000
2,
#SCROLL 0.900000
1,
#SCROLL 0.880000
1,
#SCROLL 0.860000
1,
#SCROLL 0.880000
1,
#SCROLL 0.900000
1,
#SCROLL 0.920000
2,
#SCROLL 0.940000
1,
#SCROLL 0.960000
2,
#SCROLL 0.980000
1,
#SCROLL 1.000000
1,
#SCROLL 1.020000
1,
#SCROLL 1.040000
1,
#SCROLL 1.060000
1,
#SCROLL 1.080000
2,
#SCROLL 1.100000
1,
#SCROLL 1.120000
2,
#SCROLL 1.140000
1,
#SCROLL 1.160000
2,
#SCROLL 1.180000
1,
#SCROLL 1.160000
100000,
#SCROLL 1.140000
200000,
#SCROLL 1.120000
102010,
#SCROLL 1.100000
201020,
#SCROLL 1.080000
100000,
#SCROLL 1.060000
100000,
#SCROLL 1.040000
100000,
#SCROLL 1.020000
100100,
#SCROLL 1.000000
1,
#SCROLL 0.980000
1,
#SCROLL 0.960000
2,
#SCROLL 0.940000
1,
#SCROLL 0.920000
2,
#SCROLL 0.900000
1,
#SCROLL 0.880000
1,
#SCROLL 0.860000
1,
#SCROLL 0.880000
1,
#SCROLL 0.900000
1,
#SCROLL 0.920000
2,
#SCROLL 0.940000
1,
#SCROLL 0.960000
2,
#SCROLL 0.980000
1,
#SCROLL 1.000000
1,
#SCROLL 1.020000
1,
#SCROLL 1.040000
1,
#SCROLL 1.060000
1,
#SCROLL 1.080000
2,
#SCROLL 1.100000
1,
#SCROLL 1.120000
2,
#SCROLL 1.140000
1,
#SCROLL 1.160000
2,
#SCROLL 1.180000
1,
#SCROLL 1.160000
100000,
#SCROLL 1.140000
200000,
#SCROLL 1.120000
102010,
#SCROLL 1.100000
201020,
#SCROLL 1.080000
100000,
#SCROLL 1.060000
100000,
#SCROLL 1.040000
100000,
#SCROLL 1.020000
100100,
#SCROLL 1.000000
1,
#SCROLL 0.980000
1,
#SCROLL 0.960000
2,
#SCROLL 0.940000
1,
#SCROLL 0.920000
2,
#SCROLL 0.900000
1,
#SCROLL 0.880000
1,
#SCROLL 0.860000
1,
#SCROLL 0.880000
1,
#SCROLL 0.900000
1,
#SCROLL 0.920000
2,
#SCROLL 0.940000
1,
#SCROLL 0.960000
2,
#SCROLL 0.980000
1,
#SCROLL 1.000000
1,
#SCROLL 1.020000
1,
#SCROLL 1.040000
1,
#SCROLL 1.060000
1,
#SCROLL 1.080000
2,
#SCROLL 1.100000
1,
#SCROLL 1.120000
2,
#SCROLL 1.140000
1,
#SCROLL 1.160000
2,
#SCROLL 1.180000
1,
#SCROLL 1.160000
100000,
#SCROLL 1.140000
200000,
#SCROLL 1.120000
102010,
#SCROLL 1.100000
201020,
#SCROLL 1.080000
100000,
#SCROLL 1.060000
100000,
#SCROLL 1.040000
100000,
#SCROLL 1.020000
100100,
#SCROLL 1.000000
1,
#SCROLL 0.980000
1,
#SCROLL 0.960000
2,
#SCROLL 0.940000
1,
#SCROLL 0.920000
2,
#SCROLL 0.900000
1,
#SCROLL 0.880000
1,
#SCROLL 0.860000
1,
#SCROLL 0.880000
1,
#SCROLL 0.900000
1,
#SCROLL 0.920000
2,
#SCROLL 0.940000
1,
#SCROLL 0.960000
2,
#SCROLL 0.980000
1,
#SCROLL 1.000000
1,
#SCROLL 1.020000
1,
#SCROLL 1.040000
1000,
#SCROLL 1.060000
1000,
#SCROLL 1.080000
2000,
#SCROLL 1.100000
1000,
#SCROLL 1.120000
2000,
#SCROLL 1.140000
1000,
#MEASURE 1/32
#SCROLL 1.200000
2,
#SCROLL 1.400000
2,
#SCROLL 1.600000
2,
#SCROLL 1.800000
2,
#SCROLL 2.000000
2,
#SCROLL 2.200000
2,
#SCROLL 2.400000
2,
#SCROLL 2.600000
2,
#SCROLL 2.800000
#MEASURE 1/16
7,
0,
0,
0,
8,
0,
0,
0,
0,
0,
0,
0,
0,
0,
0,
0,
#MEASURE 4/4
7000000000008
#SCROLL 0.750000
222,
11212121,
21112122,
21121122,
#SCROLL 0.870000
2
#SCROLL 0.860000
1
#SCROLL 0.850000
1
#SCROLL 0.840000
2
#SCROLL 0.830000
1
#SCROLL 0.820000
1
#SCROLL 0.810000
2
#SCROLL 0.800000
1
#SCROLL 0.790000
1
#SCROLL 0.780000
2
#SCROLL 0.770000
1
#SCROLL 0.760000
1,
#SCROLL 0.750000
11212121,
21112122,
21121122,
#SCROLL 0.870000
2
#SCROLL 0.860000
1
#SCROLL 0.850000
1
#SCROLL 0.840000
2
#SCROLL 0.830000
1
#SCROLL 0.820000
1
#SCROLL 0.810000
2
#SCROLL 0.800000
1
#SCROLL 0.790000
1
#SCROLL 0.780000
2
#SCROLL 0.770000
1
#SCROLL 0.760000
1,
2,
70000008,
#BARLINEOFF
#SCROLL -0.500000
1111,
1111,
1111,
100000100000121212100000,
1111,
100000122100100000100000,
1111,
1000100010002222,
#BARLINEON
#SCROLL 1.000000
2001001020002211,
2002001010010010,
2001001020122111,
1111,
2001002020222211,
2002001010000011,
2001001020010010,
2001001021122222,
2001002002002002,
1001002010101020,
2002002002002002,
10000010000020002200110022001100,
1001001020010010,
2001001020010020,
2
#SCROLL 1.010000
1
#SCROLL 1.020000
1
#SCROLL 1.030000
2
#SCROLL 1.040000
2
#SCROLL 1.050000
1
#SCROLL 1.060000
1
#SCROLL 1.070000
2
#SCROLL 1.080000
2
#SCROLL 1.090000
1
#SCROLL 1.100000
1
#SCROLL 1.110000
2
#SCROLL 1.120000
2
#SCROLL 1.130000
1
#SCROLL 1.140000
2
#SCROLL 1.150000
1,
#SCROLL 1.160000
2
#SCROLL 1.170000
1
#SCROLL 1.180000
1
#SCROLL 1.190000
2
#SCROLL 1.200000
2
#SCROLL 1.210000
1
#SCROLL 1.220000
1
#SCROLL 1.230000
2
#SCROLL 1.240000
2
#SCROLL 1.250000
1
#SCROLL 1.260000
1
#SCROLL 1.270000
2
#SCROLL 1.280000
2
#SCROLL 1.290000
2
#SCROLL 1.300000
2
#SCROLL 1.310000
2,
#SCROLL 1.320000
#GOGOSTART
2121212121212121,
2121212121212122,
2121212121212121,
#SCROLL 1.000000
#GOGOEND
100000000000100100100100200000000000200000000000100000200000100000200000
#SCROLL 1.080000
2000
#SCROLL 1.120000
2000
#SCROLL 1.160000
2000
#SCROLL 1.200000
2000
#SCROLL 1.240000
2000
#SCROLL 1.280000
2000,
#SCROLL 1.320000
#GOGOSTART
2121212121212121,
2121212121212122,
200400G0112040G0,
400020202000G0002020200040002222,
2121212121212121,
2121212121212122,
2121212121212121,
#SCROLL 1.000000
#GOGOEND
100000000000100100100100200000000000200000000000100000100000100100100100
#SCROLL 1.080000
2000
#SCROLL 1.120000
1000
#SCROLL 1.160000
1000
#SCROLL 1.200000
2000
#SCROLL 1.240000
1000
#SCROLL 1.280000
1000,
#SCROLL 1.320000
#GOGOSTART
2121212121212121,
2121212121212122,
2012012104022040,
G00000000000100010001000200000000000100000100000200000000000100000000000G00000000000100100100100,
#GOGOEND
2,
#END

COURSE:Oni
LEVEL:10.2
BALLOON:
SCOREINIT:
SCOREDIFF:
NOTESDESIGNER3:Colin
#START
0,
1112,
1212,
1212,
1121,
1212,
1212,
1222,
1121,
11222212,
21212122,
11222212,
12122112,
11212212,
12121222,
12121122,
11112210,
1010102011111020,
1111102011111010,
1010202022222020,
11111111,
1010101011111020,
1111102011112020,
1010101011111010,
2020202022222210,
#GOGOSTART
1020102011221020,
1122102011221020,
1020102011212020,
12121212,
1020102011221020,
1122102011222020,
1020102011221020,
12121212,
1020102011221020,
1122102011221020,
1020102011221020,
12121212,
1020102011221020,
1122102011222020,
1020102011221020,
1020102010202222,
#GOGOEND
1010201000102011,
2210112120121020,
1010202011202011,
2210121120221020,
1010202011202011,
2210112120221020,
1010202011202011,
2210112212221222,
12122222,
12122222,
12122222,
1010222210202022,
10102112,
12112022,
10102011,
2020111120002020,
10112012,
12112122,
12112112,
12112122,
12112122,
12112122,
1020101020201111,
1,
1010101010111111,
11212122,
11212211,
21221122,
211211211211,
11212121,
11221122,
11221121,
211211211211,
#MEASURE 8/4
10,
#MEASURE 4/4
12121121,
12112211,
12112122,
1020102022222010,
21121212,
1020111120101020,
12121212,
1020102010201120,
1001001020011111,
1002001010010020,
1001001020112211,
1111,
1001001020221111,
1001002050008011,
2001001020010010,
2001002011112222,
100000000100000000100000000100000000200000002000,
1001002010201020,
100000000200000000200000000200000000100000002000,
1001001020202010,
1111,
1111,
1111,
1000100010001111,
#GOGOSTART
1010112012102022,
1011101012102022,
1010201012102022,
1010201020102222,
1010102012101012,
1012102011102022,
3003003011201020,
100000200200100000100000200200100000200000202020,
1012102012112020,
1011201011201011,
1012101012101022,
100200100200100222100222,
1012102011101022,
1011201011101022,
3003003003003012,
10212122,
#GOGOEND
6,
8,
#END

COURSE:Hard
LEVEL:7
BALLOON:
SCOREINIT:
SCOREDIFF:
NOTESDESIGNER2:Colin
#START
,
1110,
1111,
1011,
1010,
1110,
1111,
1011,
1010,
1110,
1110,
1111,
1010,
1110,
1111,
1010,
1,
3,
,
2020,
2020,
2020,
2222,
2222,
22222010,
#GOGOSTART
1000111010001000,
1000111010001000,
1000111010001000,
1000111010001000,
1000111010001000,
1000111010001000,
1000111010001000,
1000111010001000,
1000111010001000,
1000111010001000,
1000111010001000,
1000111010001000,
1000111010001000,
1000111010001000,
1010101010111010,
1111,
#GOGOEND
44101010,
2111,
2111,
2121,
2111,
2111,
2111,
2121,
1222,
1222,
1222,
1000222020002000,
1222,
1222,
1222,
1222,
1222,
1222,
1222,
1222,
1222,
1222,
1222,
3,
,
2,
,
2,
111100111100,
1,
2,
1,
222200222200,
#MEASURE 8/4
20,
#MEASURE 4/4
1110,
1110,
1110,
1110,
1110,
10111000,
1110,
1110,
1001001020001110,
2001001010001010,
2001001020111010,
2111,
2001001020222020,
1001002010001011,
1001001020010010,
2001001011101110,
1001001001001001,
1001001010101010,
2002002002002002,
2002002020101010,
1001001010010010,
1001001010010010,
1111,
1111,
#GOGOSTART
1110200011111000,
1110200011111000,
1110200011111000,
1110200011102220,
1110200011101000,
1110201010101000,
1001001010101010,
1110200011101000,
1110200010101000,
1110200011101000,
1110200010101000,
1110100022222220,
1010200011102000,
1010201011101000,
1010201011102000,
1010222010202020,
#GOGOEND
6,
8,
#END

COURSE:Normal
LEVEL:6
BALLOON:100,100
SCOREINIT:
SCOREDIFF:
NOTESDESIGNER1:Colin
#START
,
1010,
1,
1010,
1,
1010,
1,
1010,
1,
1010,
1,
1010,
1,
1010,
1,
1010,
1,
7,
,
,
,
,
,
0008,
20222000,
#GOGOSTART
10111000,
10111010,
10111000,
10111010,
10111000,
10111010,
10111000,
10111010,
10111000,
10111000,
10111010,
10111000,
10111010,
10111000,
10111010,
1110,
#GOGOEND
44000010,
2101,
2101,
2121,
2010,
1110,
2011,
2021,
2,
1,
2,
1,
2,
1,
2,
1,
2,
1,
2,
1,
2,
1,
2,
3,
,
2,
,
2,
5008,
1,
2,
1,
5008,
#MEASURE 8/4
20,
#MEASURE 4/4
7,
,
,
,
,
,
,
,
8020,
2,
2020,
2,
2020,
2,
2020,
2,
1010,
1,
2020,
2,
1010,
1,
1010,
1111,
#GOGOSTART
11201000,
11201000,
11201000,
11201120,
1210,
11201000,
11201000,
11201010,
11201000,
11201000,
11201000,
11102020,
11201000,
11201000,
11201000,
11201000,
#GOGOEND
6,
8,
#END

COURSE:Easy
LEVEL:4
BALLOON:50,50
SCOREINIT:
SCOREDIFF:
NOTESDESIGNER0:Colin
#START
,
1,
1,
1,
1,
1,
1,
1,
1,
1,
1,
1,
1,
1,
1,
1,
1,
7,
,
,
,
,
,
0008,
2220,
#GOGOSTART
1110,
1110,
1110,
1110,
1110,
1110,
1110,
1110,
1110,
1110,
1110,
1110,
1110,
1110,
1110,
1110,
#GOGOEND
44000000,
2020,
2,
2020,
2,
1010,
2,
2020,
2,
1,
2,
1,
2,
1,
2,
1,
2,
1,
2,
1,
2,
1,
2,
3,
,
2,
,
2,
5008,
1,
2,
1,
5008,
#MEASURE 8/4
20,
#MEASURE 4/4
7,
,
,
,
,
,
,
,
8020,
2,
2020,
2,
2020,
2,
2020,
2,
1010,
1,
2020,
2,
1010,
1,
1010,
1111,
#GOGOSTART
1210,
1210,
1210,
1212,
1210,
1210,
1210,
1210,
1210,
1210,
1210,
1122,
1210,
1210,
1210,
1210,
#GOGOEND
6,
8,
#END
