TITLE:Hero's March
SUBTITLE:--TFD500
BPM:120
OFFSET:-0.008
DEMOSTART:48.008
WAVE:Hero's March.ogg
SCOREMODE:2
MAKER:bol

COURSE:Edit
LEVEL:8
BALLOON:
SCOREINIT:1280
SCOREDIFF:0
#START
1112001122000000,
1222001122000000,
1112001122000000,
1222000000000000,
1112001122000000,
1122001222000000,
1112001122000000,
1222000011220000,
1102201102102000,
2201102201102000,
1102201102102000,
2201102202012212,
1102201102102000,
1202102101202000,
1102201102102000,
1102002102012212,
2001201021002000,
2001201021002011,
2001201021002000,
2001201021012212,
2001201021002000,
2001201021002011,
2001201021002000,
200000000100200000100000200100000100202020101010,
#GOGOSTART
2020210121220102,
1011202012202012,
2011211011220210,
2010202012122211,
2020210121220102,
1011202012202012,
2011211011220210,
200000100000200000200000100200000200202020101010,
#GOGOEND
2000020121020112,
2002020121010210,
1011102012201020,
1021010200000000,
1122020121010210,
1120120121010210,
1122012212010202,
1022010500000080,
2000020222020222,
2002020222020220,
02222222,
2022020200000000,
0020020222020220,
0020020222020220,
0000022222020202,
2022020500000080,
#SCROLL 8
#BPMCHANGE 3.75
#MEASURE 1/32
#BARLINEOFF
3,
#SCROLL 1
#BPMCHANGE 120
#MEASURE 4/4
#BARLINEON
#GOGOSTART
2022120120221201,
2020102011202010,
2011212020122120,
2011202012202211,
2022120120221201,
2020102011202010,
2011212020122120,
2011202012202121,
1122012021012010,
1010202011202010,
2112021012022211,
2020102012202010,
2122012021012010,
1010202011202010,
1121221211212120,
200100200200220220110110,
#SCROLL 32
#BPMCHANGE 3.75
#MEASURE 1/32
3,
#GOGOEND
#SCROLL 1
#BPMCHANGE 120
#MEASURE 4/4
2022020120220201,
11220221,
2021011020120210,
21220221,
2022020120220201,
11220221,
2021011020120210,
21220223,
#SCROLL 32
#BPMCHANGE 3.75
#MEASURE 1/32
,
#END

COURSE:Oni
LEVEL:5
BALLOON:
SCOREINIT:2000
SCOREDIFF:0
#START
1002001002000000,
1002001002000000,
1002001002000000,
1002000000000000,
1002001002000000,
1002001002000000,
1002001002000000,
1002000010020000,
1002001001002000,
1002002001002000,
1002001001002000,
1002002001012010,
1002001001002000,
1002002001002000,
1002001001002000,
1002002002012010,
2222,
2222,
2222,
2222,
2001201021002000,
2001201021002010,
2001201021002000,
2001201021002010,
#GOGOSTART
2001201021002000,
2001201021002010,
2001201021002000,
2001201021002011,
2001201021002000,
2001201021002011,
2001201021002000,
2001201021002210,
#GOGOEND
1102001102000000,
1102001202000000,
1102001102000000,
1102000000000000,
1102001102000000,
1102001202000000,
1102001102000000,
1102000021020000,
1102001102000000,
1102001202000000,
1102001102000000,
1102000000000000,
1102001102000000,
1102001202000000,
1102001102000000,
1102000021020000,
#SCROLL 32
#BPMCHANGE 3.75
#MEASURE 1/32
#BARLINEOFF
3,
#SCROLL 1
#BPMCHANGE 120
#MEASURE 4/4
#BARLINEON
#GOGOSTART
2002020020020200,
11220221,
1001010020020200,
21220221,
2002020020020200,
11220221,
2002010010010200,
2010202002202010,
1022010021020010,
11220221,
1022010021022010,
21220221,
1022010021020010,
11220221,
1010202011102220,
2010202058585858,
#SCROLL 32
#BPMCHANGE 3.75
#MEASURE 1/32
,
#GOGOEND
#SCROLL 1
#BPMCHANGE 120
#MEASURE 4/4
2002020020020200,
11220221,
2001011020020210,
21220221,
2002020020020200,
11220221,
2001011020020210,
21220223,
#SCROLL 32
#BPMCHANGE 3.75
#MEASURE 1/32
,
#END

COURSE:Hard
LEVEL:5
BALLOON:
SCOREINIT:2830
SCOREDIFF:0
#START
1001001001000000,
2002002002000000,
1001001001000000,
1002000000000000,
1001001001000000,
2002002002000000,
1001001001000000,
1002000010020000,
1001001001001000,
2002002002002000,
1001001001001000,
2002002002005080,
1002001001002000,
1002002001002000,
1002001001002000,
2002002002005080,
2222,
2222,
2222,
2222,
2222,
2222,
2222,
2222,
#GOGOSTART
2001001001002000,
2001002002002010,
2001001001002000,
2001002002002022,
2001001001002000,
2001002002002010,
2001001001002000,
2001002002002220,
#GOGOEND
1002001002000000,
1002002002000000,
1002001002000000,
1002000000000000,
1002001002000000,
1002002002000000,
1002001002000000,
1002000020020000,
1002001002000000,
1002002002000000,
1002001002000000,
1002000000000000,
1002001002000000,
1002002002000000,
1002001002000000,
1002000020020000,
#SCROLL 32
#BPMCHANGE 3.75
#MEASURE 1/32
#BARLINEOFF
3,
#SCROLL 1
#BPMCHANGE 120
#MEASURE 4/4
#BARLINEON
#GOGOSTART
2001001001002000,
2001002002002010,
2001001001002000,
2001002002002022,
2001001001002000,
2001002002002010,
2001001001002000,
2001002002002220,
2001001001002000,
2001002002002010,
2001001001002000,
2001002002002022,
2001001001002000,
2001002002002010,
2001001001002000,
2001002002002220,
#SCROLL 32
#BPMCHANGE 3.75
#MEASURE 1/32
,
#GOGOEND
#SCROLL 1
#BPMCHANGE 120
#MEASURE 4/4
20020000,
20020000,
20020000,
2,
20020000,
20020000,
20020000,
20000003,
#SCROLL 32
#BPMCHANGE 3.75
#MEASURE 1/32
,
#END

COURSE:Normal
LEVEL:4
BALLOON:
SCOREINIT:2910
SCOREDIFF:0
#START
10010000,
20020000,
10010000,
2002000000000000,
10010000,
20020000,
10010000,
2002000020020000,
1001001001000000,
2002002002000000,
1001001001000000,
2002002002000000,
1002001001000000,
1002002001000000,
1002001001000000,
2002002002000000,
2222,
2222,
2222,
2222,
2222,
2222,
2222,
2222,
#GOGOSTART
4444,
4444,
4444,
4444,
4444,
4444,
4444,
4444,
#GOGOEND
10010000,
20020000,
10010000,
2002000000000000,
10010000,
20020000,
10010000,
2002000020020000,
10010000,
20020000,
10010000,
2002000000000000,
10010000,
20020000,
10010000,
2002000020020000,
#SCROLL 32
#BPMCHANGE 3.75
#MEASURE 1/32
#BARLINEOFF
3,
#SCROLL 1
#BPMCHANGE 120
#MEASURE 4/4
#BARLINEON
#GOGOSTART
4444,
4444,
4444,
4444,
4444,
4444,
4444,
4444,
1001001001001000,
2002002002002000,
1001001001001000,
2002002002002000,
1001001001001000,
2002002002002000,
1001001001001000,
2002002002002000,
#SCROLL 32
#BPMCHANGE 3.75
#MEASURE 1/32
,
#GOGOEND
#SCROLL 1
#BPMCHANGE 120
#MEASURE 4/4
20020000,
20020000,
20020000,
2,
20020000,
20020000,
20020000,
20000003,
#SCROLL 32
#BPMCHANGE 3.75
#MEASURE 1/32
,
#END

COURSE:Easy
LEVEL:3
BALLOON:
SCOREINIT:3390
SCOREDIFF:0
#START
10010000,
10010000,
10010000,
2,
10010000,
10010000,
10010000,
22,
10010000,
10010000,
10010000,
2,
10010000,
10010000,
10010000,
22,
2222,
2222,
2222,
2222,
2222,
2222,
2222,
2222,
#GOGOSTART
4444,
4444,
4444,
4444,
4444,
4444,
4444,
4444,
#GOGOEND
10010000,
10010000,
10010000,
2,
10010000,
10010000,
10010000,
22,
10010000,
10010000,
10010000,
2,
10010000,
10010000,
10010000,
2,
#SCROLL 32
#BPMCHANGE 3.75
#MEASURE 1/32
#BARLINEOFF
3,
#SCROLL 1
#BPMCHANGE 120
#MEASURE 4/4
#BARLINEON
#GOGOSTART
4444,
4444,
4444,
4444,
4444,
4444,
4444,
4444,
1001000010010000,
22,
1001000010010000,
22,
1001000010010000,
22,
1001000010010000,
2022,
#SCROLL 32
#BPMCHANGE 3.75
#MEASURE 1/32
,
#GOGOEND
#SCROLL 1
#BPMCHANGE 120
#MEASURE 4/4
20020000,
20020000,
20020000,
2,
20020000,
20020000,
20020000,
20000003,
#SCROLL 32
#BPMCHANGE 3.75
#MEASURE 1/32
,
#END
