TITLE:Scarlet Soul
SUBTITLE:--Cusi vs 9C
BPM:100
WAVE:Scarlet Soul.ogg
PREIMAGE:Scarlet Soul.png
OFFSET:0.3
DEMOSTART:115.2
SCOREMODE:2
MAKER:bol & Komi

COURSE:Oni
LEVEL:10.9
BALLOON:1,2,75
SCOREINIT:530
SCOREDIFF:0
#START
#SCROLL 0.5
#BARLINEOFF
01000200,
02000200,
#MEASURE 2/4
0122,
#BARLINEON
#BPMCHANGE 200
#MEASURE 4/4
#SCROLL 0.75
20010000,
0122,
1222,
0122,
12101210,
200122112121,
12,
#MEASURE 5/4
10200,
#MEASURE 2/4
#SCROLL 0.5
3,
#SCROLL 0.75
2,
#SCROLL 1
2,
#SCROLL 1.25
2,
#SCROLL 1.5
2,
#SCROLL 1.75
2,
#SCROLL 1
#MEASURE 4/4
3002002011121122,
2000222122112112,
10000000220022001100220011001100,
1022122211121122,
2000112000122000,
1000222122121211,
2000121120012022,
1210201020012112,
1002002011121122,
2000222122112112,
10000000220022001100220011001100,
1022122211121122,
1021021002112212,
2012012001221122,
2000111211121122,
1122112212221222,
#SCROLL 0.5
#BARLINEOFF
01212212,
#SCROLL 0.75
#BARLINEON
221221221211,
201010201010201020111122,
200122122112,
112121212112,
221221221211,
201010201010201020111122,
2144,
2022112112211211,
#SCROLL 1
1212201210201212,
#SCROLL 1.25
1122201210201212,
#SCROLL 1.5
1212201211221212,
#SCROLL 0.5
20012000,
#BARLINEOFF
20120201,
1,
2,
1000002220002000,
212212112122,
2,
22,
#SCROLL 0.75
#BARLINEON
1000001120000011,
1000221000200022,
1000001120201020,
10000000000000002200000022000000,
1202220210202222,
1022202010221020,
1012101012121012,
2012201222112212,
#MEASURE 2/4
#SCROLL 0.5
3,
#SCROLL 0.75
2,
#SCROLL 1
2,
#SCROLL 1.25
2,
#SCROLL 1.5
2,
#SCROLL 1.75
2,
#MEASURE 4/4
#SCROLL 2
78
#SCROLL 1
10201020201122,
#GOGOSTART
#SCROLL 1.5
40
#SCROLL 1
11
#SCROLL 1.5
40
#SCROLL 1
11
#SCROLL 1.5
4
#SCROLL 1
111
#SCROLL 1.5
40
#SCROLL 1
11,
#SCROLL 1.5
40
#SCROLL 1
11
#SCROLL 1.5
40
#SCROLL 1
11
#SCROLL 1.5
4
#SCROLL 1
111
#SCROLL 1.5
4
#SCROLL 1
111,
#SCROLL 1.5
40
#SCROLL 1
11
#SCROLL 1.5
40
#SCROLL 1
11
#SCROLL 1.5
4
#SCROLL 1
111
#SCROLL 1.5
4
#SCROLL 1
110,
#SCROLL 1.5
400
#SCROLL 1
100
#SCROLL 1.5
400
#SCROLL 1
100
#SCROLL 1.5
400
#SCROLL 1
100
#SCROLL 1.5
400
#SCROLL 1
100
#SCROLL 1.5
400
#SCROLL 1
101010100202020100000,
#SCROLL 1.5
40
#SCROLL 1
11
#SCROLL 1.5
40
#SCROLL 1
11
#SCROLL 1.5
4
#SCROLL 1
111
#SCROLL 1.5
40
#SCROLL 1
11,
#SCROLL 1.5
4
#SCROLL 1
1
#SCROLL 1.5
4
#SCROLL 1
1
#SCROLL 1.5
404
#SCROLL 1
1
#SCROLL 1.5
40
#SCROLL 1
11
#SCROLL 1.5
4
#SCROLL 1
110,
#SCROLL 1.5
40
#SCROLL 1
11
#SCROLL 1.5
40
#SCROLL 1
11
#SCROLL 1.5
4
#SCROLL 1
111
#SCROLL 1.5
4
#SCROLL 1
110,
#SCROLL 1.5
400
#SCROLL 1
100
#SCROLL 1.5
400
#SCROLL 1
100
#SCROLL 1.5
400
#SCROLL 1
100
#SCROLL 1.5
400
#SCROLL 1
100
#SCROLL 1.5
400
#SCROLL 1
101010100202020100000,
#SCROLL 2
7080
#SCROLL 1.5
40
#SCROLL 1
11
#SCROLL 1.5
4
#SCROLL 1
111
#SCROLL 1.5
40
#SCROLL 1
11,
#SCROLL 1.5
40
#SCROLL 1
11
#SCROLL 1.5
40
#SCROLL 1
11
#SCROLL 1.5
4
#SCROLL 1
111
#SCROLL 1.5
4
#SCROLL 1
111,
#SCROLL 1.5
40
#SCROLL 1
11
#SCROLL 1.5
40
#SCROLL 1
11
#SCROLL 1.5
4
#SCROLL 1
111
#SCROLL 1.5
4
#SCROLL 1
110,
#SCROLL 1.5
400
#SCROLL 1
100
#SCROLL 1.5
400
#SCROLL 1
100
#SCROLL 1.5
400
#SCROLL 1
100
#SCROLL 1.5
400
#SCROLL 1
100
#SCROLL 1.5
400
#SCROLL 1
101010100202020100000,
#SCROLL 1.5
40
#SCROLL 1
11
#SCROLL 1.5
40
#SCROLL 1
11
#SCROLL 1.5
4
#SCROLL 1
111
#SCROLL 1.5
40
#SCROLL 1
11,
#SCROLL 1.5
4
#SCROLL 1
1
#SCROLL 1.5
4
#SCROLL 1
1
#SCROLL 1.5
404
#SCROLL 1
1
#SCROLL 1.5
40
#SCROLL 1
11
#SCROLL 1.5
4
#SCROLL 1
110,
#SCROLL 1.5
40
#SCROLL 1
11
#SCROLL 1.5
40
#SCROLL 1
11
#SCROLL 1.5
4
#SCROLL 1
111
#SCROLL 1.5
4
#SCROLL 1
110,
#SCROLL 1.5
400
#SCROLL 1
100
#SCROLL 1.5
400
#SCROLL 1
100
#SCROLL 1.5
400
#SCROLL 1
100
#SCROLL 1.5
400
#SCROLL 1
100
#SCROLL 1.5
400
#SCROLL 1
101010100202020100000,
100000000000100100100000100000001000100000000000
#SCROLL 4
500000000000000000000000000000000000800000000000,
#SCROLL 1
100000000000100100100000100000001000100000000000
#SCROLL 4
500000000000000000000000000000000000800000000000,
#SCROLL 1
100000000000100100100000100000001000100000000000
#SCROLL 4
500000000000000000000000000000000000800000000000,
#SCROLL 1
100000000000100100100000100000001000100000000000200000000000200200200000200000002000200000200000,
#MEASURE 2/4
#BARLINEON
#SCROLL 1.5
40040040,
#BARLINEOFF
#SCROLL 1
1111111111,
#BARLINEON
#SCROLL 1.5
40040040,
#BARLINEOFF
#SCROLL 1
111111111111,
#BARLINEON
#SCROLL 1.5
40040040,
#BARLINEOFF
#SCROLL 1
11111111111111,
#BARLINEON
#MEASURE 4/4
#SCROLL 1.5
4004004030030
#SCROLL 1
212,
10210
#SCROLL 1.25
21210210
#SCROLL 1.5
212,
10210
#SCROLL 1.75
21210210
#SCROLL 2
212,
2121212121212121,
2
#SCROLL 2.1
2
#SCROLL 2.2
2
#SCROLL 2.3
2
#SCROLL 2.4
2
#SCROLL 2.5
2
#SCROLL 2.6
2
#SCROLL 2.7
2
#SCROLL 2.8
2
#SCROLL 2.9
2
#SCROLL 3
2
#SCROLL 3.2
2
#SCROLL 3.4
2
#SCROLL 3.6
2
#SCROLL 3.8
2
#SCROLL 4
2,
#GOGOEND
#SCROLL 8
7,
#SCROLL 4
,
#SCROLL 2
,
#SCROLL 1
8010201020101122,
#GOGOSTART
#SCROLL 1.133
1011201202112212,
1012201202112212,
1021201202122212,
2212212112112212,
121112200000122112200000,
222010221020111020121020,
202020100100200200100200102020100100200200100200,
200200000000100100000000200200000000100100000000200100000000100200000000100010001000200020002000,
2021201202111212,
2012201202112212,
2022201202122212,
200000200100200000100200000200100100200010002000,
200000200100200200100200000200100100202020100200,
200000100200200200100200000200100100202020100000,
200000100100200200100200000200100100202020100200,
200000000100100000000200200000000100100000000200200000000100100000000000100010002000200000000000,
#GOGOEND
#SCROLL 1.5
111010101010200000111010,
101010200000111010201010,
111010101010200000111010,
101010200000111010201010,
#SCROLL 1.75
112020201010200000112020,
201010200000112010201010,
112020201010200000112020,
201010200000112010201010,
#SCROLL 2
#GOGOSTART
122020202010200000122020,
202010200000122010201020,
122020202010200000122020,
202010200000122010201020,
#SCROLL 2.5
344334400344,
334400334434,
343334400343,
334400334434,
#GOGOEND
#SCROLL 1
3,
,
,
#END

COURSE:Hard
LEVEL:9
BALLOON:53
SCOREINIT:850
SCOREDIFF:0
#START
#BARLINEOFF
01000100,
02000200,
#MEASURE 2/4
#SCROLL 2
0222,
#BARLINEON
#BPMCHANGE 200
#MEASURE 4/4
#SCROLL 1
20020000,
0222,
1122,
0222,
11101110,
200222200222,
22,
#MEASURE 5/4
20200,
#MEASURE 4/4
32,
22,
22,
3002002011101110,
2000222022202220,
10221211,
1022202220201010,
20120120,
1000222022202220,
2000111120012020,
3030202010012020,
3002002011101110,
2000222022202220,
10221211,
1022202220201010,
1002001000002220,
2001002000002222,
2000111011101110,
1110111022202220,
#BARLINEOFF
,
#SCROLL 0.75
#BARLINEON
100111100111,
100100111111,
100111100111,
100100111111,
100111100111,
100100111111,
100111100111,
100100111111,
#SCROLL 1
1010201110201020,
1010201110201020,
1010201110201020,
20012000,
#BARLINEOFF
20220201,
,
2,
0000002220002000,
220220220220,
2,
22,
#BARLINEON
1000002220000000,
10210202,
10000212,
1044,
12021220,
10221022,
11111111,
1010101011101110,
32,
22,
22,
0010201020201110,
#GOGOSTART
#SCROLL 1.25
4000400011101000,
4000400011101110,
4000400011101000,
4040404011101110,
4000400011101000,
4040404011101110,
40404041,
4040404011101110,
6080400011101000,
4000400011101110,
4000400011101000,
4040404011101110,
40404041,
4040404011101110,
40404041,
4040404011101110,
3003003060000080,
4004004060000080,
4004004060000080,
3003003040040040,
3003003060000080,
4004004060000080,
4004004060000080,
3003003040040040,
1011011010110110,
1011011010110110,
22222222,
2222222222222222,
#GOGOEND
7,
,
,
#SCROLL 1
8010201020201110,
#GOGOSTART
1000201101112020,
1000201101122020,
1000201101222020,
2220222011101110,
1111100022222000,
220220110110,
2220222011101110,
2010201020102220,
2022201000201120,
2022201000201220,
2022201000202120,
200000200200200000100000000000200000200020002000,
2022201000201120,
2022201000201220,
2022201000201110,
2010201020101120,
#GOGOEND
111111200111,
111200111210,
111111200111,
111200111210,
111111200111,
111200111210,
111111200111,
111200111210,
#SCROLL 1.25
#GOGOSTART
111111200111,
111200111210,
111111200111,
111200111210,
222222200222,
222200222210,
222222200222,
222200222222,
#GOGOEND
#SCROLL 1
3,
,
,
#END

COURSE:Normal
LEVEL:8
BALLOON:10,47
SCOREINIT:1220
SCOREDIFF:0
#START
#BARLINEOFF
01000100,
02000200,
#MEASURE 2/4
#SCROLL 2
0222,
#BARLINEON
#BPMCHANGE 200
#MEASURE 4/4
#SCROLL 1
20020000,
0222,
2222,
0222,
22202220,
200200200222,
22,
#MEASURE 5/4
20200,
#MEASURE 4/4
32,
22,
22,
3002002010101000,
20222220,
10222211,
02222120,
10220220,
10222220,
20112022,
33221022,
3002002000101000,
20222220,
10222211,
02222120,
1002001000002020,
2001002000002020,
5008,
7008,
#BARLINEOFF
,
#SCROLL 0.75
#BARLINEON
100101100100,
101100100101,
100101100100,
101100100101,
100101100100,
101100100101,
100101100100,
101100100101,
#SCROLL 1
10200200,
10200200,
10200200,
20012000,
#BARLINEOFF
20220201,
,
2,
00022020,
2222,
2,
22,
#BARLINEON
10022000,
10220202,
10000222,
1044,
31,
31,
31111111,
31115008,
32,
22,
22,
,
#GOGOSTART
#SCROLL 1.25
40401110,
40401111,
40401110,
44441110,
40401110,
44441010,
4444,
44441110,
68401110,
40401111,
40401110,
44441110,
40401110,
44441010,
4444,
44441110,
3003003060000080,
4004004060000080,
4004004060000080,
3003003040040040,
3003003060000080,
4004004060000080,
4004004060000080,
3003003040040040,
1001001010010010,
1001001010010010,
22202220,
44444444,
#GOGOEND
7,
,
,
#SCROLL 1
8,
#GOGOSTART
1000200100102020,
1000200100102020,
1000200100102020,
22201110,
5858,
2211,
22201110,
21212120,
2002001000201020,
2002001000201020,
2002001000201020,
200200200100000200202000,
2002001000201020,
2002001000201020,
2002001000201020,
21212120,
#GOGOEND
100111100100,
111100111100,
100111100100,
111100111100,
100111100100,
111100111100,
100111100100,
111100111100,
#GOGOSTART
100111100100,
111100111100,
100111100100,
111100111100,
200222200200,
222200222200,
200222200200,
222200222200,
#GOGOEND
3,
,
,
#END

COURSE:Easy
LEVEL:6
BALLOON:5,35,15,15,20
SCOREINIT:2210
SCOREDIFF:0
#START
#BARLINEOFF
01000100,
02000200,
#MEASURE 2/4
#SCROLL 2
0222,
#BARLINEON
#BPMCHANGE 200
#MEASURE 4/4
#SCROLL 1
20020000,
0222,
2222,
0222,
22,
2222,
22,
#MEASURE 5/4
20200,
#MEASURE 1/2000
#BARLINEOFF
3,
#BARLINEON
#MEASURE 999/2000
#SCROLL 0.5
,
#MEASURE 2/4
#SCROLL 0.75
,
#SCROLL 1
,
#SCROLL 1.25
,
#SCROLL 1.5
,
#SCROLL 1.75
,
#SCROLL 1
#MEASURE 4/4
3111,
10101110,
3222,
1122,
1111,
10101110,
1111,
33001000,
3111,
10101110,
1222,
1122,
30010000,
40020000,
3,
7008,
#BARLINEOFF
,
#SCROLL 0.75
#BARLINEON
1001,
,
2002,
,
1001,
,
2002,
,
#SCROLL 1
10200200,
10200200,
10200200,
22,
#BARLINEOFF
2,
2,
2,
2,
2,
2,
22,
#BARLINEON
12,
12,
12,
12,
31,
31,
3111,
6008,
#MEASURE 1/2000
#BARLINEOFF
3,
#BARLINEON
#MEASURE 999/2000
#SCROLL 0.5
,
#MEASURE 2/4
#SCROLL 0.75
,
#SCROLL 1
,
#SCROLL 1.25
,
#SCROLL 1.5
,
#SCROLL 1.75
,
#MEASURE 4/4
#SCROLL 2
,
#GOGOSTART
#SCROLL 1.25
4444,
4444,
4444,
4444,
4444,
4444,
4444,
4444,
68404040,
4444,
4444,
4444,
4444,
4444,
4444,
4444,
30006008,
40006008,
40006008,
34,
30006008,
40006008,
40006008,
34,
1111,
1111,
2222,
60000008,
#GOGOEND
7,
,
,
#SCROLL 1
8,
#GOGOSTART
10200120,
10200120,
10200120,
1222,
5858,
2222,
1212,
22202020,
20010020,
20010020,
20010020,
20010020,
20010020,
20010020,
20010020,
2222,
#GOGOEND
7,
,
,
0008,
7,
,
,
0008,
#GOGOSTART
9,
,
,
0008,
1212,
1212,
1212,
1212,
#GOGOEND
3,
,
,
#END
