TITLE:the garden
SUBTITLE:--AZALI
BPM:130
WAVE:the garden.ogg
OFFSET:-0.044
DEMOSTART:1.19785
MAKER:Komi

COURSE:Easy
LEVEL:1
SCOREINIT:
SCOREDIFF:
NOTESDESIGNER0:Komi
#START
,
2,
,
1,
,
2,
,
1,
,
1,
2,
1,
2,
1,
02000000,
1,
,
2,
,
1,
2,
2,
1,
2,
1,
2,
,
2,
,
1,
,
2,
,
#GOGOSTART
1,
2,
2,
01000000,
2,
01000000,
2,
,
1,
2,
1,
2,
#GOGOEND
0,
,
,
,
#END

COURSE:Normal
LEVEL:2
SCOREINIT:
SCOREDIFF:
NOTESDESIGNER1:Komi
#START
,
10002001,
00010220,
10010101,
0020,
1020,
1120,
10002001,
0020,
10020202,
2222,
10110010,
11002000,
10022010,
01002020,
1001,
0020,
10001001,
1010,
2020,
11002000,
10011001,
00020201,
1,
00022010,
10010200,
1122,
2010,
1020,
10010200,
1122,
1,
02000000,
#GOGOSTART
10010020,
02002010,
10010020,
02002010,
10010020,
02001010,
10010020,
02001000,
10010020,
02002010,
10010020,
02002010,
#GOGOEND
1,
,
01000000,
,
#END

COURSE:Hard
LEVEL:4
SCOREINIT:
SCOREDIFF:
NOTESDESIGNER2:Komi
#START
,
10101201,
12012110,
10111201,
11221000,
10111202,
12121010,
10212021,
22021000,
21121121,
12112010,
22122122,
12212010,
21121121,
12112011,
10221121,
12001000,
10111201,
12012020,
10111201,
12012020,
10111201,
12012121,
21121120,
21011010,
10111201,
12012020,
21121121,
2010,
10111201,
12012020,
21121120,
01002000,
#GOGOSTART
11211211,
21121122,
12112112,
11212211,
20010020,
01001010,
10020010,
02001010,
11211211,
21121122,
12112112,
11212211,
#GOGOEND
1,
,
01000000,
,
#END

COURSE:Oni
LEVEL:6
SCOREINIT:
SCOREDIFF:
NOTESDESIGNER3:Komi
#START
#BARLINEOFF
0000000000221010,
2,
1022,
20011000,
1000000010221010,
2,
10010020,
11200000000000000000200000002000,
0000000000221010,
20010211,
100000000100101020201020,
10010000,
11100000000000001120000000000000,
12200000000000000000201020001000,
2000000000221020,
2,
200000221211,
1000000000212010,
2000002210001000,
2000000000201021,
22011000,
1000000000212010,
20010201,
20000000000010000000100012000000,
1020,
2000000000212010,
20010020,
11100000000000001120000000000000,
11200000000000001200000000000000,
22000000000000000000000000000000,
0021101020001000,
10020010,
0010000010221010,
#GOGOSTART
20020020,
01002010,
10020020,
01002010,
12210212,
21221221,
21212212,
12222121,
20010000,
01122122,
20010000,
02002020,
#GOGOEND
#SCROLL 1
G,
000000
#SCROLL 0.826923
001
#SCROLL 0.817308
002
#SCROLL 0.807692
001000
#SCROLL 0.788462
001000
#SCROLL 0.769231
000100000000
#SCROLL 0.730769
200000000
#SCROLL 0.701923
010,
0
#SCROLL 0.682692
010000000000000,
#SCROLL 0.538462
100000
#SCROLL 0.5
020000000000000000,
#END
