TITLE:beyond the cityscape
SUBTITLE:--Makotora
BPM:142
WAVE:Beyond the Cityscape.ogg
OFFSET:-0.215
DEMOSTART:61.060
PREIMAGE:Beyond the Cityscape.png
SCOREMODE:2

COURSE:Edit
LEVEL:10
BALLOON:
SCOREINIT:1230
SCOREDIFF:0
#START
3011201110112011,
1011201110112011,
1011201110112011,
1011201110112010,
4001201020012010,
2001201020012220,
12221222,
100000100000200000200000100000100000200000200000100020002000100020002000100010001000200200200200,
#MEASURE 8/4
#SCROLL 2
3,
#MEASURE 4/4
#SCROLL 0.5
11120200,
#BARLINEOFF
11120202,
21120101,
11212020,
11120200,
11120202,
21210201,
11212020,
#BARLINEON
#SCROLL 1
3001201010012010,
1001201010012012,
1001201010012010,
1001201010012012,
1001201010012010,
1001201010012012,
1001201010012010,
1001201010012012,
2001201020012010,
2001201020012220,
2001201020012010,
2001201020012220,
1020202210202022,
1020202210202022,
1122112211221122,
100000200000100000200000100000200000100000200000100000100000100000100000100010001000100100100100,
#MEASURE 8/4
#SCROLL 2
3,
#MEASURE 4/4
#GOGOSTART
3011201110212020,
1011201210112020,
1011201120212020,
1011221020112210,
1011201110212020,
1011201210112020,
1011201120212020,
100000100000200000200000100000100000200000200000100010001000100010001000100100100100100100100000,
3011201212101020,
1011202121101020,
1011201212201020,
1011221020112210,
1011201212101020,
1011202121101020,
1011201212201020,
100000100000200000200000100000100000200000200000100010001000100010001000100100100100100100100000,
#SCROLL 1
3011201011012010,
1011201011012012,
1011201011012010,
1011201011012012,
1011201011012010,
1011201011012012,
1011201011012010,
1011201011012012,
2001201020012010,
2001201020012220,
2001201020012010,
2001201020012220,
1021212210212122,
1021212210212122,
1122112211221122,
100020002000100020002000100020002000100020002000100000100000100000100000100010001000100100100100,
#GOGOEND
#MEASURE 8/4
#SCROLL 2
3,
#END

COURSE:Oni
LEVEL:7
BALLOON:
SCOREINIT:1560
SCOREDIFF:0
#START
3001200110012001,
1001200110012010,
1001200110012001,
1001200110012010,
4001201020012010,
2001201020012220,
12221222,
1110111010101111,
#MEASURE 8/4
1,
#MEASURE 4/4
11120200,
11120202,
21120101,
11212020,
11120200,
11120202,
21210201,
11212020,
3001201010012010,
1001201010012011,
1001201010012010,
1001201010012011,
1001201010012010,
1001201010012011,
1001201010012010,
1001201011102000,
4001201020012010,
2001201020012220,
2001201020012010,
2001201020012220,
32221222,
12221222,
1110111011101110,
1010101011111110,
#MEASURE 8/4
3,
#MEASURE 4/4
#GOGOSTART
3011201110202020,
1010201000201120,
1011200020201020,
1011202011201000,
1011201110202020,
1010201000201120,
1011200020201020,
1120112011101111,
1011201202101020,
0010202101101020,
0010201202201020,
1011202011201000,
1011201202101020,
0010202101101020,
0010201202201020,
1120112011101111,
1001201010012010,
1001201010012011,
1001201010012010,
1001201010012011,
1001201010012010,
1001201010012011,
1001201010012010,
1001201011102000,
4001201020012010,
2001201020012220,
2001201020012010,
2001201020012220,
32221222,
12221222,
1110111011101110,
1010101011111110,
#GOGOEND
#MEASURE 8/4
3,
#END

COURSE:Hard
LEVEL:4
BALLOON:
SCOREINIT:2370
SCOREDIFF:0
#START
31201120,
11201120,
11201120,
11201120,
3222,
1000200020002220,
12201220,
1000100010101110,
#MEASURE 8/4
3,
#MEASURE 4/4
10120200,
10120202,
20120101,
10111020,
10120200,
10120202,
20120101,
1122,
3001001010010010,
1001001010010011,
1001001010010010,
1001001010010011,
1001001010010010,
1001001010010011,
1001001010010010,
1001001010002000,
3222,
1000200020002220,
1222,
1000200020002220,
32201220,
12201220,
1111,
1010101011101000,
#MEASURE 8/4
3,
#MEASURE 4/4
#GOGOSTART
30120222,
20110022,
20202212,
10221210,
10120222,
21010022,
20202212,
30112220,
30221222,
11102010,
2000102022201000,
10221210,
1000202011102000,
1000201011102000,
1000202011102000,
30112220,
10120200,
10120202,
20120101,
10111020,
10120200,
10120202,
20120101,
1122,
3222,
1000200020002220,
1222,
1000200020002220,
32201220,
12201220,
1111,
1010101011101000,
#GOGOEND
#MEASURE 8/4
3,
#END

COURSE:Normal
LEVEL:3
BALLOON:
SCOREINIT:3730
SCOREDIFF:0
#START
3212,
1212,
1212,
1212,
3202,
1202,
1212,
1158,
#MEASURE 8/4
3,
#MEASURE 4/4
10020200,
10020200,
20010100,
1122,
10020200,
10020200,
20010100,
1122,
3202,
0202,
1202,
0202,
1202,
0202,
1202,
0202,
3220,
1220,
1220,
1220,
3212,
1212,
1111,
1158,
#MEASURE 8/4
3,
#MEASURE 4/4
#GOGOSTART
3212,
1212,
1212,
1212,
1212,
1212,
1212,
3158,
30201120,
10201220,
10201120,
11102220,
10201120,
10201220,
10201120,
3158,
10020200,
10020200,
20010100,
1122,
10020200,
10020200,
20010100,
1122,
3220,
1220,
1220,
1220,
3212,
1212,
1111,
1158,
#GOGOEND
#MEASURE 8/4
3,
#END

COURSE:Easy
LEVEL:2
BALLOON:
SCOREINIT:6730
SCOREDIFF:0
#START
31,
11,
11,
11,
3202,
0202,
11,
5008,
#MEASURE 8/4
3,
#MEASURE 4/4
1,
1,
2,
2,
1,
1,
2,
2,
3,
,
1,
,
1,
,
1,
,
3202,
1202,
1202,
1202,
31,
11,
1110,
5008,
#MEASURE 8/4
3,
#MEASURE 4/4
#GOGOSTART
31,
1110,
22,
2220,
11,
1110,
22,
5008,
31,
1110,
22,
2220,
1110,
1110,
2220,
5008,
11,
11,
22,
22,
11,
11,
22,
22,
3202,
1202,
1202,
1202,
31,
11,
1110,
5008,
#GOGOEND
#MEASURE 8/4
3,
#END
