TITLE:Gewissenbisse
SUBTITLE:--Sukima Altera vs ALTERNATiVE THEORY
WAVE:Gewissenbisse.ogg
BPM:170.00
OFFSET:-0.000
DEMOSTART:107.294

COURSE:Tower
LEVEL:9
LIFE:6
BALLOON:43,1
#START
7,
0,
0,
0008,
12,
11,
0,
0,
12,
11,
0,
0,
12,
11,
0,
0,
22,
200020
#SCROLL 1.400000
58,
#SCROLL 1.800000
58
#SCROLL 2.200000
58
#SCROLL 2.600000
58
#SCROLL 3.000000
58,
#SCROLL 0.400000
2122,
#SCROLL 1.200000
1022102210221010,
1022102210101020,
1022102210221010,
1022102210107080,
1022102211221020,
1022102210221120,
1022102211221020,
2022202220222220,
2011101120111011,
2011101120111011,
2011101120111011,
2011201120111010,
2011101120111011,
2011101120111011,
2011101120111011,
2111211121112111,
2011101120111011,
2011101120111011,
2011101120111011,
2011201120111010,
2011101120111011,
2011101120111011,
2
#SCROLL 1.080000
2
#SCROLL 0.970000
2
#SCROLL 0.870000
2
#SCROLL 0.780000
2
#SCROLL 0.700000
2
#SCROLL 0.630000
2
#SCROLL 0.570000
2,
2
#SCROLL 0.630000
2
#SCROLL 0.700000
2
#SCROLL 0.780000
2
#SCROLL 0.870000
2
#SCROLL 0.970000
2
#SCROLL 1.080000
2
#SCROLL 1.200000
2
#SCROLL 1.320000
2
#SCROLL 1.450000
2
#SCROLL 1.590000
2
#SCROLL 1.750000
2
#SCROLL 1.920000
2
#SCROLL 2.110000
2
#SCROLL 2.320000
2
#SCROLL 2.550000
2,
#SCROLL 1.000000
12,
21,
12,
2110,
12,
21,
12,
2122,
12,
21,
12,
2110,
12,
21,
12,
#SCROLL 0.300000
2122,
#SCROLL 0.800000
1012202120102011,
20002000100010202000200010001110,
2001202120102011,
2020101220201000,
1012202120102011,
20002000100010202000200010001110,
2001202120102011,
2020202220201020,
1012202120102011,
20002000100010202000200010001110,
2001202120102011,
2020101220201000,
12121212,
12121212,
1122112211221122,
11221122
#SCROLL 0.450000
20102020,
#SCROLL 1.100000
#GOGOSTART
1012202120112011,
20002000100010202000200010001110,
2011202120112011,
2020101220201111,
1012202120112011,
20002000100010202000200010001110,
2111202120112011,
2021202220221121,
1012202120112011,
20002000100010202000200010001110,
2011202120112011,
2020101220201111,
1012202120112011,
20002000100010202000200010001110,
2111202120112011,
2021202220221121,
2010201120221010,
2012201120201020,
2010201120221010,
2011201121212120,
2010201120221010,
2012201120201020,
2010201120221010,
2011202020112120,
2010201120221010,
2012201120201020,
2010201120221010,
2011201121212120,
2010201120221010,
2012201120201020,
2010201120221010,
2011202020112120,
1012202120112011,
20002000100010202010200010001110,
2011202120112011,
2020101221202010,
2012202120112011,
20002000100010202010200010001110,
11111111,
1111111111111111,
1001202120102010,
20002000100010202000200010001110,
2001202120102010,
2020101220201000,
1001202120102010,
20002000100010202000200010001110,
2
#SCROLL 1.080000
2
#SCROLL 0.970000
2
#SCROLL 0.870000
2
#SCROLL 0.780000
2
#SCROLL 0.700000
2
#SCROLL 0.630000
2
#SCROLL 0.570000
2,
2
#SCROLL 0.630000
2
#SCROLL 0.700000
2
#SCROLL 0.780000
2
#SCROLL 0.870000
2
#SCROLL 0.970000
2
#SCROLL 1.080000
2
#SCROLL 1.200000
2
#SCROLL 1.320000
2
#SCROLL 1.450000
2
#SCROLL 1.590000
2
#SCROLL 1.750000
2
#SCROLL 1.920000
2
#SCROLL 2.110000
2
#SCROLL 2.320000
2
#SCROLL 2.550000
2,
#SCROLL 0.750000
#GOGOEND
2002202220202020,
20002000200020202000200020002220,
2002202220202020,
2020202220202000,
2002202220202020,
20002000200020202000200020002220,
2002202220202020,
2020202220202020,
2002202220202020,
20002000200020202000200020002220,
2002202220202020,
2020202220202000,
2002202220202020,
20002000200020202000200020002220,
2002202220202020,
2020202220202020,
#END
