TITLE:Synthsea
SUBTITLE:--Taichenko
BPM:190
WAVE:Synthsea.ogg
OFFSET:0
DEMOSTART:141.473
PREIMAGE:Synthsea.png
SCOREMODE:2

COURSE:Oni
LEVEL:10.5
BALLOON:
SCOREINIT:350
SCOREDIFF:0
#START
#SCROLL 0.8
3,
1,
11,
1,
1,
1,
11,
1,
3,
1,
11,
1011,
1,
1,
1011,
1,
#SCROLL 1
3001,
20104002,
3021,
4142,
30200210,
40021240,
12220210,
40021000,
3221,
20104002,
30222010,
4142,
300000000000200000200000200200200200202020200000,
400000200000222200400000,
300000000000200000200000200200200200202020200000,
4212,
3201,
20104022,
3221,
4142,
30200210,
40021240,
12220210,
40021000,
3221,
2140,
3241,
202020200200200000100000400000000000200000000000,
10224010,
2142,
10224010,
2141,
#SCROLL 0.8
1,
1,
11,
1,
1,
1,
1,
1,
#SCROLL 1
1000201110102000,
1010201210102000,
1000201210102000,
1010201022102000,
1000201110102000,
1010201210102000,
1000201210102000,
1011201020102000,
100000000100200000100100100000100000200000101010,
1010201122102012,
1000201110102022,
1010201122102000,
100000000100200000100100100000100000200000101010,
1010201122102012,
1010202220102010,
4,
1000201210102011,
1001201022102012,
1000201110102012,
1010201122102000,
1000202220102022,
1022221020102012,
1000222020102012,
1010201020202222,
1001201022102222,
1021202120102222,
1001202221102022,
1201202120212012,
1001201011112011,
1010201020102012,
1001201011112012,
1010201020202222,
1002102010121020,
1021202121102012,
1001202221012222,
1000201120102020,
1011102020102020,
1022202220102010,
1011102020111020,
100100100200100000101010200000200000200200200200,
1001202011112012,
1001201122102022,
1221221211212221,
2112112121112211,
100000000100200000200000100100100000200000101010,
1001201120102000,
1221222122112211,
2021101120202222,
#SCROLL 0.8
1001,
0110,
1001,
0110,
1001,
0110,
1001,
4,
#SCROLL 1
#GOGOSTART
1001201210102022,
1010201120102022,
1001201122102012,
1010201120102222,
1001201120102022,
1110201202102012,
1001201111012012,
1010201022102222,
1001201210102012,
1010201122102222,
1001201222102012,
1011201120102222,
1001201210102012,
1110201202112012,
1001201221012012,
1010201022102022,
1001201210102022,
1010201122102222,
1001201122102012,
1010201120102222,
1001201120102022,
1110201202102012,
1001201111012012,
1010201022102222,
1001202211102012,
1010201122102212,
1001201221102012,
1011201220102222,
1001221210102012,
1101201221012012,
1001201121012012,
1010201022102022,
#GOGOEND
1,
,
,
,
2,
,
2,
22,
1111,
#BPMCHANGE 192
1111,
#BPMCHANGE 194
1111,
#BPMCHANGE 196
1111,
#BPMCHANGE 198
1111
#BPMCHANGE 200
1111,
#BPMCHANGE 202
1111
#BPMCHANGE 204
1111,
#BPMCHANGE 208
1111
#BPMCHANGE 212
1111
#BPMCHANGE 216
1111
#BPMCHANGE 222
1110,
#BPMCHANGE 222
3000300030301011,
#GOGOSTART
1022102011112012,
1011201022102012,
1011201011112012,
1011201022102011,
1010400010112010,
2210201122102011,
2011201121102010,
#GOGOEND
3000300030301011,
#GOGOSTART
1021102210102012,
1010201022102012,
1021102210102012,
1010201022102011,
1010400010221020,
1110201121102011,
2011201121102010,
3000300030301011,
#GOGOEND
1111,
10101011,
1111,
1010100010102022,
12121212,
1020102010202022,
12121212,
12121400,
1000201110102022,
1000201210102022,
1010201110102022,
1010201022102010,
1020201020002011,
1010201022102010,
12211201,
0020001020102022,
#GOGOSTART
1010201110102022,
1010201022102222,
1020201000112010,
2210201022102010,
1000201110201122,
1022201022102121,
1010201110201121,
#GOGOEND
1020102010102222,
#GOGOSTART
1021001010210111,
1021011110210010,
2211112212212211,
211211212111111
#GOGOEND
1,
#GOGOSTART
101200
#GOGOEND
10
#GOGOSTART
101201
#GOGOEND
11,
#GOGOSTART
101201
#GOGOEND
11
#GOGOSTART
101200
#GOGOEND
11,
#GOGOSTART
2211221122122122,
#GOGOEND
1101101111011011,
#MEASURE 1/8
1,
#SCROLL 4.49
,
#SCROLL 4.09
,
#SCROLL 4.09
,
#SCROLL 3.72
,
#SCROLL 3.72
,
#SCROLL 3.39
,
#SCROLL 3.39
,
#SCROLL 3.09
,
#SCROLL 3.09
,
#SCROLL 2.81
,
#SCROLL 2.81
,
#SCROLL 2.56
,
#SCROLL 2.56
,
#SCROLL 2.33
,
#SCROLL 2.33
,
#SCROLL 2.12
,
#SCROLL 2.12
,
#SCROLL 1.93
,
#SCROLL 1.93
,
#SCROLL 1.76
,
#SCROLL 1.76
,
#SCROLL 1.6
,
#SCROLL 1.6
,
#SCROLL 1.46
,
#SCROLL 1.46
,
#SCROLL 1.33
,
#SCROLL 1.33
,
#SCROLL 1.21
,
#SCROLL 1.21
,
#SCROLL 1.1
,
#SCROLL 1.1
,
#MEASURE 4/4
#SCROLL 1
#GOGOSTART
#BARLINEON
#GOGOSTART
3000201110102022,
1010201120102122,
1021102011112011,
1010201212102011,
1000201210102011,
2210201120102211,
2011201022102011,
2011201120112222,
1000201110102012,
1010201120102211,
1010201210102222,
1011201022102000,
1022102210102211,
1011201122102222,
1022102211102010,
#GOGOEND
1000100010102222,
#GOGOSTART
1011201212102022,
1010201120102222,
1021102011112012,
1010201212102011,
1000201212102011,
2010201122102211,
2011201022102011,
2011201210112222,
1000202210102012,
1210201120102211,
1010201210102222,
1111201022102211,
1022102210102211,
1011201122102222,
1022102210221020,
3000300030101111,
#GOGOEND
1,
#BARLINEOFF
,
,
,
,
,
#BARLINEON
#BPMCHANGE 111
20202220,
20222020,
20202220,
22202020,
20202220,
20222020,
20202220,
2222,
1001002001002011,
100000000100000000100000000000101010200000100100,
1011010200222111,
100000000100000000100000400000101010200000100100,
1001002001002011,
100000000100000000100000000000101010200000100100,
1011010200222111,
1001001040102020,
3,
#END

COURSE:Hard
LEVEL:9
BALLOON:12
SCOREINIT:480
SCOREDIFF:0
#START
3,
1,
11,
1,
1,
1,
11,
1,
4,
1,
11,
1011,
1,
1,
1011,
1,
3001,
2140,
3021,
4142,
3021,
40020240,
2201,
41,
3221,
2140,
30222010,
4142,
30222020,
4024,
30222020,
4212,
3201,
2142,
3221,
4142,
3201,
40020240,
1201,
41,
3221,
2140,
3241,
2242,
10224010,
2142,
10224010,
2141,
1,
1,
11,
1,
1,
1,
1,
1,
1000201110102000,
1010201110102000,
1000201110102000,
1010201022202000,
1000201110102000,
1010201110102000,
1000201110102000,
1010201022202000,
1000201110102000,
1010201110102000,
1000201110102000,
1010201022202000,
1000201110102000,
1010201110102000,
1000201110102000,
4,
1000201110102000,
1010201110102000,
1000201110102000,
1010201022202000,
1000201110102022,
2010201110102000,
1000201110102000,
1010201020202222,
2000201110102000,
1010201110102000,
1000201110102000,
1010201022202000,
1000201110102022,
2010201110102000,
1000201110102000,
1010201020202222,
2000201110102000,
1010201110102000,
1000201110102000,
1010201022202000,
1000201110102022,
2010201110102000,
1000201110102000,
1010201020202222,
2001101020002011,
2001101020002000,
1110202011102020,
1110202011102020,
2001101020002011,
2001101020102010,
2220101022201011,
1011101110202222,
2001,
0110,
1001,
0110,
1001,
0110,
1001,
4,
#GOGOSTART
1000201020111010,
1000201110102000,
1000201110102011,
1000201110102022,
1000201020111010,
1000201110102000,
1000201110102011,
1000201110102222,
1000201020111010,
1000201110102000,
1000201110102011,
1000201110102022,
1000201020111010,
1000201110102000,
1000201110102011,
1000201110102022,
1000201020111010,
1000201110102000,
1000201110102011,
1000201110102022,
1000201020111010,
1000201110102000,
1000201110102011,
1000201110102222,
1000201020111010,
1000201110102000,
1000201110102011,
1000201110102022,
1000201020111010,
1000201110102000,
1000201110102011,
1000201110102022,
#GOGOEND
1,
,
,
,
2,
,
2,
22,
1111,
#BPMCHANGE 192
1111,
#BPMCHANGE 194
1111,
#BPMCHANGE 196
1111,
#BPMCHANGE 198
#MEASURE 2/4
1111,
#BPMCHANGE 200
1111,
#BPMCHANGE 202
1111,
#BPMCHANGE 204
1111,
#BPMCHANGE 208
#MEASURE 1/4
7,
#BPMCHANGE 212
,
#BPMCHANGE 216
,
#BPMCHANGE 222
08,
#MEASURE 4/4
3000300030301011,
#GOGOSTART
11211121,
11211121,
11211121,
11211121,
10211121,
1010201010102011,
11212122,
#GOGOEND
1000300030301011,
#GOGOSTART
11211121,
11211121,
11211121,
11211121,
10211121,
1010201010102011,
11212122,
1000300030301011,
#GOGOEND
1111,
10101011,
1111,
11101122,
12121212,
12121222,
12121212,
12121400,
1000201110102020,
1000201110102020,
10211121,
11212120,
1020201020002011,
11212021,
12211201,
0020001020102022,
#GOGOSTART
1010201110102020,
11212122,
1020201000101011,
11212120,
1010201110201011,
12212122,
1010201110201020,
#GOGOEND
1020102010102222,
#GOGOSTART
1002101010021010,
1002101010021010,
5,
000000000000000
#GOGOEND
0,
#GOGOSTART
800210
#GOGOEND
10
#GOGOSTART
100210
#GOGOEND
10,
#GOGOSTART
100210
#GOGOEND
10
#GOGOSTART
100210
#GOGOEND
10,
#GOGOSTART
50000008,
#GOGOEND
1101101011011011,
#MEASURE 1/8
#SCROLL 4.49
,
#SCROLL 4.49
,
#SCROLL 4.09
,
#SCROLL 4.09
,
#SCROLL 3.72
,
#SCROLL 3.72
,
#SCROLL 3.39
,
#SCROLL 3.39
,
#SCROLL 3.09
,
#SCROLL 3.09
,
#SCROLL 2.81
,
#SCROLL 2.81
,
#SCROLL 2.56
,
#SCROLL 2.56
,
#SCROLL 2.33
,
#SCROLL 2.33
,
#SCROLL 2.12
,
#SCROLL 2.12
,
#SCROLL 1.93
,
#SCROLL 1.93
,
#SCROLL 1.76
,
#SCROLL 1.76
,
#SCROLL 1.6
,
#SCROLL 1.6
,
#SCROLL 1.46
,
#SCROLL 1.46
,
#SCROLL 1.33
,
#SCROLL 1.33
,
#SCROLL 1.21
,
#SCROLL 1.21
,
#SCROLL 1.1
,
#SCROLL 1.1
,
#MEASURE 4/4
#SCROLL 1
#GOGOSTART
11211121,
11211121,
11211121,
11211121,
10211121,
1010201010102011,
11212122,
3000300030002222,
11211121,
11211121,
11211121,
11211121,
10211121,
1010201010102011,
11212122,
#GOGOEND
1000100010102222,
#GOGOSTART
11211121,
11211121,
11211121,
11211121,
10211121,
1010201010102011,
11212122,
3000300030002222,
11211121,
11211121,
11211121,
11211121,
10211121,
1010201010102011,
11212122,
1000100010102222,
#GOGOEND
1,
,
,
,
,
,
#BPMCHANGE 111
20202220,
20222020,
20202220,
22202020,
20202220,
20222020,
20202220,
2222,
1001002001002011,
100000000100000000100000000000202020200000100100,
1001100200220111,
100000000100000000100000400000202020200000100100,
1001102001102011,
100000000100000000100000000000202020200000100100,
1001100200220111,
1001001040102020,
3,
#END

COURSE:Normal
LEVEL:7
BALLOON:20
SCOREINIT:710
SCOREDIFF:0
#START
3,
1,
11,
1,
1,
1,
11,
1,
4,
1,
11,
11,
1,
1,
11,
1,
3001,
0140,
3001,
4140,
3001,
4004,
1001,
41,
3001,
0140,
3221,
4140,
3221,
4204,
3221,
4212,
3001,
0142,
3001,
4142,
3001,
4004,
1001,
41,
3001,
0142,
3241,
00014000,
1241,
2142,
1241,
2141,
,
,
,
,
1,
,
1,
,
30200120,
10200120,
10200120,
10200120,
30200120,
10200120,
10200120,
10210120,
30210120,
10202120,
10210120,
10202120,
30210120,
10202120,
10210120,
4,
30210120,
10202120,
10210120,
10202120,
30210120,
10202120,
10210120,
10202222,
30210120,
10202120,
10210120,
10202120,
30210120,
10202120,
10210120,
10202222,
30210120,
10201120,
10210120,
10201120,
30210120,
10201120,
10210120,
10202222,
1002001010002010,
1002001010002010,
11201220,
21201120,
1002001000102010,
1002001010002010,
21202120,
20102222,
1001,
0110,
1001,
0110,
1001,
0110,
1001,
4,
#GOGOSTART
10210120,
10211120,
10210120,
10212120,
10210120,
10211122,
10210120,
10210122,
10210120,
10211120,
10210120,
10211122,
20210120,
10211120,
10210120,
10210122,
10210120,
10211120,
10210120,
10212120,
10210120,
10211122,
10210120,
10210122,
10210120,
10211120,
10210120,
10211122,
20210120,
10211120,
10210120,
10210122,
#GOGOEND
1,
,
,
,
2,
,
2,
2,
1111,
#BPMCHANGE 192
1111,
#BPMCHANGE 194
1111,
#BPMCHANGE 196
1111,
#MEASURE 2/4
#BPMCHANGE 198
1110,
#BPMCHANGE 200
1110,
#BPMCHANGE 202
1110,
#BPMCHANGE 204
1110,
#BPMCHANGE 208
#MEASURE 1/4
7,
#BPMCHANGE 212
,
#BPMCHANGE 216
,
#BPMCHANGE 222
08,
#MEASURE 4/4
30303333,
#GOGOSTART
10201120,
10201120,
10201120,
10201121,
01201120,
10201121,
20202021,
#GOGOEND
30303333,
#GOGOSTART
10201120,
10201120,
10201120,
10201121,
01201120,
10201121,
20202120,
30303333,
#GOGOEND
1002,
1002,
10020010,
1122,
12020202,
02020222,
12120202,
02021400,
10201120,
10201120,
10201120,
1222,
12222011,
01110101,
22202022,
02012122,
#GOGOSTART
10201120,
10201120,
10201120,
11202120,
10210210,
22201020,
10210201,
#GOGOEND
10101044,
#GOGOSTART
1002001010020010,
1002001010020010,
5,
000000000000800
#GOGOEND
0,
#GOGOSTART
100400
#GOGOEND
10
#GOGOSTART
200300
#GOGOEND
20,
#GOGOSTART
100400
#GOGOEND
10
#GOGOSTART
200300
#GOGOEND
20,
#GOGOSTART
5008,
#GOGOEND
3003001030030010,
#MEASURE 1/8
#SCROLL 4.49
,
#SCROLL 4.49
,
#SCROLL 4.09
,
#SCROLL 4.09
,
#SCROLL 3.72
,
#SCROLL 3.72
,
#SCROLL 3.39
,
#SCROLL 3.39
,
#SCROLL 3.09
,
#SCROLL 3.09
,
#SCROLL 2.81
,
#SCROLL 2.81
,
#SCROLL 2.56
,
#SCROLL 2.56
,
#SCROLL 2.33
,
#SCROLL 2.33
,
#SCROLL 2.12
,
#SCROLL 2.12
,
#SCROLL 1.93
,
#SCROLL 1.93
,
#SCROLL 1.76
,
#SCROLL 1.76
,
#SCROLL 1.6
,
#SCROLL 1.6
,
#SCROLL 1.46
,
#SCROLL 1.46
,
#SCROLL 1.33
,
#SCROLL 1.33
,
#SCROLL 1.21
,
#SCROLL 1.21
,
#SCROLL 1.1
,
#SCROLL 1.1
,
#MEASURE 4/4
#SCROLL 1
#GOGOSTART
10201120,
10201120,
10201120,
10201121,
11102220,
11102220,
10202021,
10101044,
10201120,
10201120,
10201120,
10201121,
10201120,
10201120,
10201120,
#GOGOEND
10101044,
#GOGOSTART
10201120,
10201120,
10201120,
10201121,
10201120,
10201120,
10201120,
10101044,
10201120,
10201120,
10201120,
10201121,
10201120,
10201121,
21202120,
10101144,
#GOGOEND
3,
,
,
,
,
,
#BPMCHANGE 111
20202220,
2222,
20202220,
2222,
20202220,
2222,
20202220,
2222,
10010021,
1001001000002010,
10010001,
1001001020001000,
10010021,
1001001000002010,
10010001,
1001001020102020,
3,
#END

COURSE:Easy
LEVEL:2
BALLOON:
SCOREINIT:4000
SCOREDIFF:0
#START
#SCROLL 0.8
3,
,
,
,
,
,
,
,
3,
,
,
,
,
,
,
,
#SCROLL 1
1,
02,
1,
2,
1,
2,
,
2,
1,
02,
1,
2,
1,
2,
1,
2,
1,
02,
1,
2,
1,
2,
,
,
1,
02,
1,
02,
1,
02,
02,
02,
#SCROLL 0.8
,
,
,
,
,
,
,
,
#SCROLL 1
1202,
0202,
0202,
0202,
1202,
0202,
0202,
0202,
1202,
0202,
0202,
0202,
1202,
0202,
0202,
5008,
1,
1,
2,
,
1,
,
,
,
1,
1,
1,
2,
11,
1,
5,
0008,
2,
2,
1,
,
1,
2,
1,
2,
11,
2,
11,
2,
12,
1,
2,
22,
#SCROLL 0.8
3,
,
,
,
,
,
,
4,
#SCROLL 1
#GOGOSTART
1,
,
5,
0008,
1,
0002,
5,
0008,
1,
,
5,
0008,
1,
0002,
5,
0008,
1,
,
5,
0008,
1,
0002,
5,
0008,
1,
,
5,
0008,
1,
0002,
5,
0008,
#GOGOEND
1,
,
,
,
,
,
,
,
3,
#BPMCHANGE 192
,
#BPMCHANGE 194
,
#BPMCHANGE 196
,
#BPMCHANGE 198
5
#BPMCHANGE 200
0,
#BPMCHANGE 202
0
#BPMCHANGE 204
0,
#BPMCHANGE 208
0
#BPMCHANGE 212
0
#BPMCHANGE 216
0
#BPMCHANGE 222
0,
#BPMCHANGE 222
8,
#GOGOSTART
1,
1,
2,
2,
1,
1,
2,
#GOGOEND
,
#GOGOSTART
1,
1,
2,
2,
1,
1,
2,
,
#GOGOEND
,
,
,
,
,
,
,
,
1,
2,
1,
2,
1,
1,
2,
2,
#GOGOSTART
1,
11,
1,
,
1,
0,
22,
#GOGOEND
2,
#GOGOSTART
3,
3,
3,
300000000000000
#GOGOEND
0,
#GOGOSTART
300000
#GOGOEND
00
#GOGOSTART
300000
#GOGOEND
00,
#GOGOSTART
300000
#GOGOEND
00
#GOGOSTART
300000
#GOGOEND
00,
#GOGOSTART
5,
#GOGOEND
,
#MEASURE 1/8
#SCROLL 4.49
8,
#SCROLL 4.49
,
#SCROLL 4.09
,
#SCROLL 4.09
,
#SCROLL 3.72
,
#SCROLL 3.72
,
#SCROLL 3.39
,
#SCROLL 3.39
,
#SCROLL 3.09
,
#SCROLL 3.09
,
#SCROLL 2.81
,
#SCROLL 2.81
,
#SCROLL 2.56
,
#SCROLL 2.56
,
#SCROLL 2.33
,
#SCROLL 2.33
,
#SCROLL 2.12
,
#SCROLL 2.12
,
#SCROLL 1.93
,
#SCROLL 1.93
,
#SCROLL 1.76
,
#SCROLL 1.76
,
#SCROLL 1.6
,
#SCROLL 1.6
,
#SCROLL 1.46
,
#SCROLL 1.46
,
#SCROLL 1.33
,
#SCROLL 1.33
,
#SCROLL 1.21
,
#SCROLL 1.21
,
#SCROLL 1.1
,
#SCROLL 1.1
,
#MEASURE 4/4
#SCROLL 1
#BARLINEON
#GOGOSTART
11,
1,
22,
2,
11,
1,
22,
2,
1,
1,
2,
2,
11,
1,
22,
#GOGOEND
2,
#GOGOSTART
12,
12,
,
,
12,
12,
,
,
1,
1,
2,
2,
1,
1,
2,
2,
#GOGOEND
,
,
,
,
,
,
#BPMCHANGE 111
1,
,
1,
,
3,
,
1,
,
3002,
1,
1,
12,
3,
1,
1,
5,
8,
#END
