TITLE:Deceiver's Terminus
SUBTITLE:--H5
WAVE:DeceiverTerminus.ogg
BPM:190.00
OFFSET:-0.236
DEMOSTART:284.408

COURSE:Tower
LEVEL:10
LIFE:8
BALLOON:10,10,39
#START
#MEASURE 4/4
0,
0,
0,
0,
11220000,
0,
11220000,
02,
11220000,
0,
11120011,
22000000,
11220000,
0,
11220000,
02,
11220000,
0,
10020010,
02000000,
11220201,
01010212,
11220201,
01012122,
11220202,
01020221,
11220011,
22000000,
11220201,
01010212,
11220201,
01012122,
11220202,
01020200,
10020010,
02700008,
2011201020001011,
1010200021111110,
1011201020001010,
1011201122222220,
2011201020001011,
1010200022222020,
1011201000112010,
0011201120121111,
1011201020001011,
1010200022222020,
1011201020001010,
1011201121111010,
2011201020001011,
1010200022222020,
1111,
100000100000100000111100,
11111111,
10001000100010001000100011001100,
12121212,
12121212,
22222222,
2222222222222222,
#GOGOSTART
2010101120101020,
00001010100020001100110010001000,
2120101020101020,
0011102011101020,
2010101120101020,
00001010100020001100110010001000,
2120102000212020,
1011201122102010,
2010101120101020,
00001010100020001100110010001000,
2120101020101020,
0011102011101020,
2010101120101020,
00001010100020001100110010001000,
2120102000212020,
1011201122102010,
1010202011201010,
1110201000201020,
1011202010202010,
0010201020112020,
1010202011202020,
01220221,
4011204000112040,
0020101011101020,
1010202011202010,
0010201011201020,
11220221,
0010201020112020,
11221212,
1110202010202010,
1011202000112020,
0020201122101111,
#GOGOEND
2011201020001011,
1010200022222020,
1011201020001010,
1011201122222220,
2011201020001011,
1010200022222020,
1011201000112010,
0011201120121111,
1011201020001011,
1010200022222020,
1011201020001010,
1011201121111010,
2011201020001011,
1010200022222020,
1111,
100000100000100000111100,
11111111,
10001000100010001000100011001100,
12121212,
12121212,
22222222,
200
#SCROLL 4.000000
4,
#SCROLL 1.000000
10000000100000001000000011002200,
11002200110011005000000000000080,
10000000100000001100220011002200,
500000000000000000000800200020002000200020002000,
00000000100000001100220011002200,
11002200110011001000001010000010,
20000000100000001100220011002200,
11002200110011001000001010000010,
20000000100000002020202011001100,
200020002000200020002000100000000100100000000100,
10000000100000001100220011002200,
5000000820002000,
10000000100000001100220011002200,
11002200110011001000001010000010,
10000000100000001100220011002200,
11002200110011001010100010001000,
11220000,
0,
11220000,
02,
11220000,
0,
11120011,
22000000,
11220000,
0,
11220000,
02,
00112200,
0,
#MEASURE 2/4
0,
#BPMCHANGE 152.000000
#MEASURE 4/4
10000000
#SCROLL 0.850000
100000000
#SCROLL 0.730000
2000000,
0
#SCROLL 0.580000
20000000000,
#SCROLL 0.480000
1220101020102211,
1220101020121211,
2220102020102111,
#MEASURE 15/16
101020000010102020000022202020,
#MEASURE 4/4
#SCROLL 1.000000
20102020102010201020202010201011,
10102020102010222020202010201011,
10102020222010202020202022201010,
11101010111010101110101011111111,
#GOGOSTART
1220101212201121,
1220111212002212,
10202000100010201020200020102011,
1220101122112111,
1220101212201121,
1220111212002212,
10202000100010201020200020102011,
20201120201120201120101020102010,
2000000
#SCROLL 3.000000
4,
40
#SCROLL 1.000000
11
#SCROLL 3.000000
40
#SCROLL 1.000000
11
#SCROLL 3.000000
40
#SCROLL 1.000000
11
#SCROLL 3.000000
40
#SCROLL 1.000000
11,
#SCROLL 3.000000
40
#SCROLL 1.000000
10
#SCROLL 3.000000
4
#SCROLL 1.000000
110
#SCROLL 3.000000
4
#SCROLL 1.000000
110
#SCROLL 3.000000
4
#SCROLL 1.000000
110,
#SCROLL 3.000000
4
#SCROLL 1.000000
111
#SCROLL 3.000000
40
#SCROLL 1.000000
11
#SCROLL 3.000000
4
#SCROLL 1.000000
11
#SCROLL 3.000000
4
#SCROLL 1.000000
11
#SCROLL 3.000000
4
#SCROLL 1.000000
1,
#SCROLL 3.000000
40
#SCROLL 1.000000
11
#SCROLL 3.000000
40
#SCROLL 1.000000
11
#SCROLL 3.000000
40
#SCROLL 1.000000
11
#SCROLL 3.000000
40
#SCROLL 1.000000
11,
#SCROLL 3.000000
40
#SCROLL 1.000000
10
#SCROLL 3.000000
4
#SCROLL 1.000000
110
#SCROLL 3.000000
4
#SCROLL 1.000000
110
#SCROLL 3.000000
4
#SCROLL 1.000000
110,
#SCROLL 3.000000
4
#SCROLL 1.000000
111
#SCROLL 3.000000
40
#SCROLL 1.000000
11
#SCROLL 3.000000
40
#SCROLL 1.000000
11
#SCROLL 3.000000
40
#SCROLL 1.000000
11,
#SCROLL 3.000000
40
#SCROLL 1.000000
1010
#SCROLL 3.000000
40
#SCROLL 1.000000
1010
#SCROLL 3.000000
40
#SCROLL 1.000000
10
#SCROLL 3.000000
40
#SCROLL 1.000000
101110
#SCROLL 3.000000
40
#SCROLL 1.000000
101110,
#BPMCHANGE 205.000000
#GOGOEND
#SCROLL 0.600000
2,
0,
11220000,
02,
12220000,
0,
11120011,
22000000,
11220000,
0,
11220000,
02,
12220000,
0,
10010010,
02000000,
#SCROLL 0.800000
11220201,
01010212,
11220201,
01012122,
11220202,
01020221,
11220011,
22000000,
#SCROLL 1.000000
11220201,
01010212,
11220201,
01012122,
11221122,
11221122,
11111111,
11101010101010101110101011101010,
2011201020001011,
1010200022222020,
1011201020001010,
1011201122222220,
2011201020001011,
1010200022222020,
1011201000112010,
0011201120121111,
1011201020001011,
1010200022222020,
1011201020001010,
1011201121111010,
2011201020001011,
1010200022222020,
1111,
100000100000100000111100,
#SCROLL 1.050000
11111111,
10001000100010001000100011001100,
#SCROLL 1.100000
12121212,
12121212,
#SCROLL 1.160000
22222222,
#SCROLL 0.950000
2
#SCROLL 0.900000
2
#SCROLL 0.860000
2
#SCROLL 0.820000
2
#SCROLL 0.780000
2
#SCROLL 0.740000
2
#SCROLL 0.700000
2
#SCROLL 0.660000
2
#SCROLL 0.630000
2
#SCROLL 0.600000
2
#SCROLL 0.570000
2
#SCROLL 0.540000
2
#SCROLL 0.510000
2
#SCROLL 0.480000
2
#SCROLL 0.460000
2
#SCROLL 0.440000
2,
#SCROLL 1.000000
#GOGOSTART
1110102011201020,
1010102010202211,
1020112010201010,
1020102010202211,
1110102011201020,
1010102010202211,
#GOGOEND
200000000000200000000000202020200000200000200200,
200022002200
#SCROLL 3.000000
40
#SCROLL 1.000000
22,
#GOGOSTART
2110202021202120,
2010202020202211,
2020212021202011,
2020202020202211,
2110202021202120,
2010202020202211,
2211202122212010,
4011221122112111,
1011202010102011,
1011221021212110,
1011202010102011,
1011221021212120,
#GOGOEND
20000000100000001100220011002200,
11002200110011001000001010000010,
20000000100000001100220011002200,
11002200110011001000001020202000,
2111
#GOGOSTART
201120201010,
2011101122102121,
2110101120201010,
2011101122102121,
#GOGOEND
20000000100000001100220011002200,
11002200110011001000001010000010,
20000000100000001100220011002200,
11002200110011001000001020202020,
#BPMCHANGE 200.000000
2010101120101020,
00001010100020001100110010001000,
2120101020101020,
0011102011101020,
2010101120101020,
00001010100020001100110010001000,
2120102000212020,
1011201122102010,
2010101120101020,
00001010100020001100110010001000,
2120101020101020,
0011102011101020,
2010101120101020,
00001010100020001100110010001000,
2120102000212020,
1011201122102010,
#SCROLL 0.800000
11220201,
01010212,
11220201,
01012122,
11220202,
01020221,
11220011,
22000000,
11220201,
01010212,
11220201,
01012122,
11220202,
01020200,
10020010,
00002000700000000000000000000800,
11220000,
0,
11220000,
02,
11220000,
0,
11120011,
22000000,
11220000,
0,
01122000,
0002,
00011220,
0,
0,
12,
0100000000200070,
0,
8,
#END
