TITLE:Athazagoraphobia
SUBTITLE:--Derpikarp
BPM:180
WAVE:Athazagoraphobia.ogg
OFFSET:0
DEMOSTART:84.570
MAKER:Colin & bol

COURSE:Edit
LEVEL:10
BALLOON:2,2,2,2,2
SCOREINIT:500
SCOREDIFF:0
NOTESDESIGNER3:bol
#START
#SCROLL 0.5
11221122,
#BARLINEOFF
11221221,
11221122,
11222122,
11121112,
11121121,
11221112,
11221222,
#BARLINEON
11221122,
#BARLINEOFF
11221221,
11221122,
11222122,
11121112,
11121121,
11221112,
11221222,
#SCROLL 4
#BARLINEOFF
3,
#SCROLL 0.5
,
#BARLINEON
#MEASURE 1/16
,
#SCROLL 0.6
,
#SCROLL 0.7
,
#SCROLL 0.8
,
#SCROLL 0.9
,
#SCROLL 1
,
#SCROLL 1.1
,
#SCROLL 1.2
,
#SCROLL 1.3
,
#SCROLL 1.4
,
#SCROLL 1.5
,
#SCROLL 1.6
,
#SCROLL 1.7
,
#SCROLL 1.8
,
#SCROLL 1.9
,
#SCROLL 2
,
#SCROLL 2.1
,
#SCROLL 2.2
,
#SCROLL 2.3
,
#SCROLL 2.4
,
#SCROLL 2.5
,
#SCROLL 2.6
,
#SCROLL 2.7
,
#SCROLL 2.8
,
#SCROLL 2.9
,
#SCROLL 3
,
#SCROLL 3.2
,
#SCROLL 3.4
,
#SCROLL 3.6
,
#SCROLL 3.8
,
#SCROLL 4
,
#SCROLL 4.5
,
#SCROLL 1
#MEASURE 4/4
11000000110000001100000022002200,
11000000110000001100000022002200,
11000000110000001100000022002200,
11000000110000001100000022001100,
11000000110000001100000022002200,
11000000110000001100000022002200,
11000000110000001100000022002200,
11000000110000001100000022001100,
11000000110000001100000022002200,
11000000110000001100000022002200,
11000000110000001100000022002200,
11000000110000001100000022001100,
11000000110000001100000022002200,
11000000110000001100000022002200,
11000000110000001100000022002200,
11000000110000001100000022001100,
#BPMCHANGE 210
#GOGOSTART
1211202212212012,
1211201212212212,
1211202212212012,
1211201212212212,
1211202212212012,
1211201212212212,
1211202212212012,
1211201212212212,
1111202212112012,
1211212212212112,
1111202212112012,
1211212212212112,
1111202212112012,
1211212212212112,
1111202212112012,
1211212212212112,
#GOGOEND
#SCROLL 0.75
1011201212112122,
1110201120112212,
1011201212112122,
1110201120102220,
1011201212112122,
1110201120112212,
1011201212112122,
1110201120102220,
#SCROLL 1
1011201110112012,
1111201122112122,
1011201110112012,
1111201122112122,
1011201110112012,
1111201122112122,
1011201110112012,
1111201122112122,
1010001120201120,
1120001122112212,
1010001120201120,
1120001122112212,
1010001120201120,
1120001122112212,
1010001120201120,
1120001122112212,
#GOGOSTART
1111202211112022,
1111202211212212,
1111202211112022,
1111202211212212,
1211202212112022,
1211202211212212,
1221201212212012,
#GOGOEND
#SCROLL 0.5
7080708078787080,
#SCROLL 1
#GOGOSTART
1111221211112212,
1111221122212211,
1111221211112212,
1111221121112111,
1111221211112212,
1111221122212211,
1111221211112212,
1111221121112111,
1011202010112020,
1111221120112211,
1011202010112020,
1212201210112212,
1111212211112122,
1111212211112122,
1111212211112122,
1211201120112212,
1121201212212012,
1121201122112121,
1121201212212012,
1121201122112121,
1121201212212012,
1121201122112121,
1121201212212012,
1121201122112121,
1011201010112010,
1110201122102110,
1011201010112010,
1110201122102110,
1011201010112010,
1110201122102110,
1011201010112010,
1110201122102110,
#GOGOEND
1010001210101210,
1010001210102210,
1010001210101210,
1010001220102210,
1010001210101210,
1010001210102210,
1010001210101210,
1010001220102210,
1010001220112012,
1010001220112210,
1010001220112012,
1010001220102210,
1010001220112012,
1010001220112210,
1010001220112012,
1010001220102210,
#SCROLL 999
5858585858585858585858585858585858585858585858585858585858585858,
#END

COURSE:Oni
LEVEL:10
BALLOON:60
SCOREINIT:580
SCOREDIFF:0
NOTESDESIGNER3:Colin & 0AuBSQ
#START
#BPMCHANGE 180
11121112,
11121122,
11121112,
11121122,
11121112,
11121122,
11121112,
11121122,
11121112,
11121122,
11121112,
11121122,
11121112,
11121122,
11121112,
11121122,
7,
0,
0,
0008,
30304034,
30303033,
30303034,
30303033,
40304034,
30303033,
30303034,
30303033,
40304034,
30303033,
30303034,
30303033,
40304034,
30303033,
40304034,
30303033,
#BPMCHANGE 210
#GOGOSTART
1010221020201011,
2210201020221010,
1011221020221010,
2011201020221010,
1011221020221010,
2011201020221010,
1011221020221010,
2011201020221010,
1011221020221010,
2111201020221010,
1011221020221010,
2111201020221010,
1011221020221010,
2111201020221010,
1011221020221010,
2111201020221010,
#GOGOEND
1011202012221222,
1011201021221211,
1011201011221122,
1011201022112210,
1011202012221222,
1011201021221211,
1011201011221122,
1011201022112210,
1011202012221222,
1011201021221211,
1011201011221122,
1011201022112210,
1011202012221222,
1011201021221211,
1011201011221122,
1011201022112210,
1010201020101212,
1011201012122222,
1011202010102111,
2211202010201121,
1010101020101212,
1011201010122222,
1011202010102111,
2211202010221121,
#GOGOSTART
1011202010201022,
1011202010102010,
1011202010201122,
1011202010201122,
1011202010102010,
1011202010201122,
1011202010201122,
#GOGOEND
1011202010102010,
#GOGOSTART
1011201012212122,
1011201022121222,
1011201012212122,
1011201011221010,
1011201012212122,
1011201022121020,
1011201012212122,
1011201011221010,
11121112,
1110221120221010,
11121122,
1211202010112211,
2010211010102110,
1111201011102010,
1111201011102110,
2222102010101111,
2011201021212121,
2011202012112010,
1011201012111020,
1111201022112010,
1011221021112010,
1111201022112010,
1011201021112010,
1111201022112010,
11121112,
1110102010102020,
11121112,
1110102010102020,
11121112,
1110102010102020,
11121112,
1110102010102020,
#GOGOEND
#SCROLL 2.000000
3
#SCROLL 1.000000
202
#SCROLL 2.000000
3
#SCROLL 1.000000
220,
#SCROLL 2.000000
3
#SCROLL 1.000000
202
#SCROLL 2.000000
3
#SCROLL 1.000000
220,
#SCROLL 2.000000
3
#SCROLL 1.000000
202
#SCROLL 2.000000
3
#SCROLL 1.000000
220,
#SCROLL 2.000000
3
#SCROLL 1.000000
202
#SCROLL 2.000000
3
#SCROLL 1.000000
220,
#SCROLL 2.000000
3
#SCROLL 1.000000
202
#SCROLL 2.000000
3
#SCROLL 1.000000
220,
#SCROLL 2.000000
3
#SCROLL 1.000000
202
#SCROLL 2.000000
3
#SCROLL 1.000000
220,
#SCROLL 2.000000
3
#SCROLL 1.000000
202
#SCROLL 2.000000
3
#SCROLL 1.000000
220,
#SCROLL 2.000000
3
#SCROLL 1.000000
202
#SCROLL 2.000000
3
#SCROLL 1.000000
220,
#SCROLL 2.000000
3
#SCROLL 1.000000
202
#SCROLL 2.000000
3
#SCROLL 1.000000
220,
#SCROLL 2.000000
3
#SCROLL 1.000000
202
#SCROLL 2.000000
3
#SCROLL 1.000000
220,
#SCROLL 2.000000
3
#SCROLL 1.000000
202
#SCROLL 2.000000
3
#SCROLL 1.000000
220,
#SCROLL 2.000000
3
#SCROLL 1.000000
202
#SCROLL 2.000000
3
#SCROLL 1.000000
220,
#SCROLL 2.000000
3
#SCROLL 1.000000
202
#SCROLL 2.000000
3
#SCROLL 1.000000
220,
#SCROLL 2.000000
3
#SCROLL 1.000000
202
#SCROLL 2.000000
3
#SCROLL 1.000000
220,
#SCROLL 2.000000
3
#SCROLL 1.000000
202
#SCROLL 2.000000
3
#SCROLL 1.000000
220,
#SCROLL 2.000000
3
#SCROLL 1.000000
202
#SCROLL 2.000000
3
#SCROLL 1.000000
220,
#SCROLL 999
50000008,
#END

COURSE:Hard
LEVEL:6
BALLOON:
SCOREINIT:1360
SCOREDIFF:0
NOTESDESIGNER2:Colin & bol
#START
1,
0,
1,
0,
1,
0,
1,
0,
5,
00000008,
5,
00000008,
5,
00000008,
5,
,
8,
0,
0,
0,
3333,
3333,
3333,
3333,
3333,
3333,
3333,
3333,
3333,
3333,
3333,
3333,
3333,
3333,
3333,
3333,
#BPMCHANGE 210
#GOGOSTART
10201120,
1110201010102000,
10201120,
1110201010102000,
10201120,
1110201010102000,
10201120,
1110201010102000,
10201120,
1110201010102000,
10201120,
1110201010102000,
10201120,
1110201010102000,
10201120,
1110201010102000,
#GOGOEND
10001100,
1110001010100000,
10001100,
1110001010100000,
10001100,
1110001010100000,
10001100,
1110001010100000,
10201120,
1110200010102000,
10201120,
1110200010102000,
10201120,
1110200010102000,
10201120,
1110200010102000,
11010100,
11010100,
11010100,
11010100,
11010100,
11010100,
11010100,
11010100,
#GOGSTART 21201120,
21201120,
21201120,
21201120,
21201120,
21201120,
21201120,
#GOGOEND
21201120,
#GOGOSTART
10201120,
1110201010102000,
10201120,
1110201010102000,
10201120,
1110201010102000,
10201120,
1110201010102000,
10201120,
1110201000102000,
10201120,
1110201000102000,
10201120,
1110201000102000,
10201120,
1110201000102000,
10201120,
1110200010102000,
10201120,
1110200010102000,
10201120,
1110200010102000,
10201120,
1110200010102000,
10201120,
11210120,
10201120,
11210120,
10201120,
11210120,
10201120,
11210120,
#GOGOEND
11,
11,
11,
11,
11,
11,
11,
11,
11,
11,
11,
11,
11,
11,
11,
11,
#SCROLL 999
50000008,
#END

COURSE:Normal
LEVEL:2
BALLOON:
SCOREINIT:3500
SCOREDIFF:0
NOTESDESIGNER1:Colin
#START
#SCROLL 0.5
1,
0,
1,
0,
1,
0,
1,
0,
1,
0,
1,
0,
1,
0,
1,
0,
1,
0,
0,
0,
3,
3,
3,
3,
3,
3,
3,
3,
3,
3,
3,
3,
3,
3,
3,
3,
#BPMCHANGE 210
#GOGOSTART
0,
0,
0,
0,
1202,
1202,
1202,
1202,
1202,
1202,
1202,
1202,
1202,
1202,
1202,
1202,
#GOGOEND
5,
0,
0,
0,
0,
0,
0,
00000008,
11,
11,
11,
11,
11,
11,
11,
11,
11,
11,
1,
1,
1,
1,
1,
1,
#GOGOSTART
1202,
1202,
1202,
1202,
1202,
1202,
1202,
#GOGOEND
1202,
#GOGOSTART
1202,
1202,
1202,
1202,
1202,
1202,
1202,
1202,
1202,
1202,
1202,
1202,
1202,
1202,
1202,
1202,
1202,
1202,
1202,
1202,
1202,
1202,
1202,
1202,
1202,
1202,
1202,
1202,
1202,
1202,
1202,
1202,
#GOGOEND
1,
1,
1,
1,
1,
1,
1,
1,
1,
1,
1,
1,
1,
1,
1,
1,
#SCROLL 999
50000008,
#END

COURSE:Easy
LEVEL:1
BALLOON:
SCOREINIT:8100
SCOREDIFF:0
NOTESDESIGNER0:Colin
#START
#SCROLL 0.5
1,
0,
0,
0,
1,
0,
0,
0,
5,
0,
0,
0,
0,
0,
0,
00000008,
0,
0,
0,
0,
1,
0,
1,
0,
1,
0,
1,
0,
1,
0,
1,
0,
1,
0,
1,
0,
#BPMCHANGE 210
#GOGOSTART
1200,
2,
2,
2,
2,
2,
2,
2,
2,
2,
2,
2,
2,
2,
2,
2,
#GOGOEND
2,
2,
2,
2,
2,
2,
2,
2,
2100,
1,
1,
1,
1,
1,
1,
1,
1,
0,
1,
0,
1,
0,
1,
0,
#GOGOSTART
1,
0,
1,
0,
1,
0,
1,
#GOGOEND
2,
#GOGOSTART
11,
1,
11,
1,
11,
1,
11,
1,
1,
1,
1,
2,
2,
2,
2,
2,
2,
2,
22,
2,
22,
2,
22,
2,
2,
0,
2,
0,
2,
0,
2,
0,
#GOGOEND
1,
1,
1,
1,
1,
1,
1,
1,
1,
1,
1,
1,
1,
1,
1,
1,
#SCROLL 999
50000008,
#END
