TITLE:mischief madness
SUBTITLE:--Makotora
BPM:180
WAVE:Mischief Madness.ogg
PREIMAGE:mischiefmadness.png
OFFSET:-0.086
DEMOSTART:30.752
GENRE:
MAKER:Makotora

COURSE:Oni
LEVEL:10
SCOREINIT:500
SCOREDIFF:40
#START
#BARLINEOFF
#SCROLL 0.75
1010201020020020,
0010201020020020,
1010201020020020,
0010201020020020,
1010201020020020,
0010201020020020,
1010201020020020,
01212020,
2001201020120120,
2011201020122021,
2001201020120120,
2012201020112022,
2001201020120120,
2011201020122021,
2001201020120120,
200000100200200000100000200200000200200000202020,
#BARLINEON
#SCROLL 1
1011201022102011,
1011201022102210,
1011201022102011,
1011201022102210,
1212112212121122,
100200100200101010200200100200100200101010200200,
100100200200100100200200101010200200101010200200,
#SCROLL 2
58585840,
#GOGOSTART
#SCROLL 1
1022102210221120,
1022102210221210,
101000200000101000200200101000200000101000200200,
101000200000101000200200101000000100101000101000,
1022102210221120,
101000200000101000200200101000200000101000101000,
1022102210221120,
#SCROLL 2
43434340,
#SCROLL 1
1011201110112011,
100000200200100100200000100000200200101000101000,
1011201110112011,
100000200200100100200000100000000100101000101000,
1011201210221012,
1011201210221012,
100100200200100100200200101010200200101010200200,
#SCROLL 2
58585840,
#GOGOEND
#SCROLL 0.75
1010201120201022,
1020201220101021,
12102112,
1000101120221020,
1010212010221020,
1000202012102120,
5008,
11201121,
2010201120102021,
2010201220102021,
21202121,
2000201120212022,
2010212020221020,
1000202012102120,
5008,
100000100000200000000000200200000200200000202020,
#SCROLL 1
1022102012012012,
1022102012012210,
2011201021021021,
2011201021021120,
1120102210210120,
2210201120122210,
1120102210210120,
2210201122211212,
1011201022102011,
1011201022102210,
1011201022102011,
1011201022102210,
1212112212121122,
100200100200101010200200100200100200101010200200,
100100200200100100200200101010200200101010200200,
#SCROLL 2
58585840,
#GOGOSTART
#SCROLL 1
100000202020100000200200100000202020100100200000,
100000202020100000200200100000100100100000100100,
100000202020100000200200100000202020100000200200,
100000202020100000200200100200100200100100100100,
100000202020100000200200100000202020100000200200,
100000202020100000200200100100000100100000100200,
1022102012112210,
#SCROLL 2
43434340,
#SCROLL 1
100000101010200000100100100000101010200000100100,
100000202020100100200000100000100100200000100100,
100000101010200000100100100000101010200000100100,
100000202020100100200000100200100200100100100100,
100000101010200000100100100000101010200000100100,
100000202020100100200000100100000100200000100200,
1022102012112210,
#SCROLL 2
43434340,
#SCROLL 1
1022122012121111,
100000200200100200200000100200100200100100202020,
100000200200100200200000100100202020100100202020,
100000200200100200200000101010101010202020202020,
1012101210121111,
100000100200100000100200100000100200100100202020,
100000100200100000100200100100202020100100202020,
1120112022102210,
#GOGOEND
#SCROLL 4
4,
#END

COURSE:Hard
LEVEL:8
SCOREINIT:500
SCOREDIFF:55
#START
#BARLINEOFF
#SCROLL 0.75
1000201020020020,
0000200020020020,
1000201020020020,
0000200020020020,
1000201020020020,
0000200020020020,
1000201020020020,
0222,
2000201020020020,
20212022,
2000201020020020,
2000201020002022,
2000201020020020,
20212022,
2000201020020020,
2000201022022020,
#BARLINEON
#SCROLL 1
1010201020102010,
1010201020102220,
1010201020102011,
1010201020102220,
1010111010101110,
2020222020202220,
1110222011102220,
#SCROLL 2
58585840,
#GOGOSTART
#SCROLL 1
12121212,
1020102010201110,
1022002200220022,
1022002210011010,
12121212,
1022002210001010,
12121212,
#SCROLL 2
43434340,
#SCROLL 1
1010201110102011,
1020100010201110,
1010201110102011,
1020100010011010,
1010201110201011,
1010201110201011,
1010222011102020,
#SCROLL 2
58585840,
#GOGOEND
#SCROLL 0.75
10202212,
10202112,
10102112,
10102212,
10221012,
10221122,
5008,
1212,
20212022,
20212022,
20202121,
2000200020102022,
20222012,
10221122,
5008,
1000200022022020,
#SCROLL 1
1020100012012010,
1020100012012022,
2010200021021020,
2010200021021011,
1020100011011010,
2010200022022020,
1020100011011010,
2010200022201110,
1010201020102011,
1010201020102220,
1010201020102011,
1010201020102220,
1010111010101110,
2020222020202220,
1110222011102220,
#SCROLL 2
58585840,
#GOGOSTART
#SCROLL 1
12121212,
1020102010111011,
12121212,
1020102010101111,
12121212,
1020102011011010,
11201120,
#SCROLL 2
43434340,
#SCROLL 1
1010201110102011,
1020102010111011,
1010201110102011,
1020102010101111,
1010201110102011,
1020102011011010,
11201120,
#SCROLL 2
43434340,
#SCROLL 1
1020100010101111,
1020100010101111,
1020100011101111,
1020100011101111,
1010101010101111,
1010101010101111,
1010101010101111,
12122121,
#GOGOEND
#SCROLL 2
4,
#END

COURSE:Normal
LEVEL:7
SCOREINIT:500
SCOREDIFF:80
#START
#BARLINEOFF
#SCROLL 0.75
1000200020020020,
0000200020020020,
1000200020020020,
0000200020020020,
1000200020020020,
0000200020020020,
1000200020020020,
0222,
2000200020020020,
20202022,
2000200020020020,
2000200020002020,
2000200020020020,
20202022,
2000200020020020,
2000200020020020,
#BARLINEON
#SCROLL 1
1222,
10202022,
1222,
10202022,
11101110,
22202220,
11102220,
#SCROLL 2
58585840,
#GOGOSTART
#SCROLL 1
10101012,
10101012,
10101012,
10101011,
10101012,
10101011,
10101012,
#SCROLL 2
43434340,
#SCROLL 1
11201120,
10101011,
11201120,
10101011,
11201120,
10101011,
11221122,
#SCROLL 2
58585840,
#GOGOEND
#SCROLL 0.75
10202220,
10202202,
10202202,
10102220,
10221010,
10221020,
5008,
1212,
20202022,
20202022,
20202101,
20202022,
20202012,
10201022,
5008,
10202022,
#SCROLL 1
1000100010010010,
1000100010010020,
2000200020020020,
2000200020020010,
1000100010010010,
2000200020020020,
1000100010010010,
2000200020201010,
1222,
10202022,
1222,
10202022,
11101110,
22202220,
11102220,
#SCROLL 2
58585840,
#GOGOSTART
#SCROLL 1
10101012,
10101011,
10101012,
10101011,
10101012,
10101011,
10101012,
#SCROLL 2
43434340,
#SCROLL 1
11201120,
10101011,
11201120,
10101011,
11201120,
10101011,
11201120,
#SCROLL 2
43434340,
#SCROLL 1
10101011,
10101111,
10101011,
10101111,
10101011,
10101111,
10101011,
2222,
#GOGOEND
#SCROLL 2
4,
#END

COURSE:Easy
LEVEL:6
SCOREINIT:500
SCOREDIFF:90
#START
#BARLINEOFF
#SCROLL 0.75
1000200020020020,
0000200020020020,
1000200020020020,
0000200020020020,
1000200020020020,
0000200020020020,
1000200020020020,
0222,
2000200020020020,
20202022,
2000200020020020,
2000200020002020,
2000200020020020,
20202022,
2000200020020020,
2000200020020020,
#BARLINEON
#SCROLL 1
1222,
1222,
1222,
1222,
1111,
2222,
1122,
#SCROLL 2
50000840,
#GOGOSTART
#SCROLL 1
1111,
1111,
1111,
10101011,
1111,
10101011,
1111,
#SCROLL 2
4444,
#SCROLL 1
1212,
10101011,
1212,
10101011,
1212,
10101011,
1212,
#SCROLL 2
50000840,
#GOGOEND
#SCROLL 0.75
1222,
10202202,
10202202,
1122,
1210,
2120,
5008,
1212,
2222,
20202022,
2222,
20202022,
1210,
2120,
5008,
1212,
#SCROLL 1
1000100010010010,
1000100010010020,
2000200020020020,
2000200020020010,
1000100010010010,
2000200020020020,
1000100010010010,
2000200020201010,
1222,
1222,
1222,
1222,
1111,
2222,
1122,
#SCROLL 2
50000840,
#GOGOSTART
#SCROLL 1
1111,
10101011,
1111,
10101011,
1111,
10101011,
1111,
#SCROLL 2
4444,
#SCROLL 1
1212,
10101011,
1212,
10101011,
1212,
10101011,
1212,
#SCROLL 2
4444,
#SCROLL 1
1111,
10101011,
1111,
10101011,
1111,
10101011,
1111,
2222,
#GOGOEND
#SCROLL 2
4,
#END
