// ===== Made using 0AuBSQ's Dan Chart Maker =====
TITLE:名人
BPM:230
WAVE:Slayer of..ogg
DEMOSTART:60.564
SCOREMODE:2

COURSE:Dan
LEVEL:10
BPM:230
BALLOON:2,30
EXAM1:g,100,100,m
EXAM2:jg,41,21,l
EXAM3:jb,6,2,l
DANTICK:5
DANTICKCOLOR:#ff00cd
#START
#NEXTSONG Slayer of.,Aden Mayo,,1.ogg,350,80,10,3
#BPMCHANGE 230
#MEASURE 4/4
#SCROLL 1.0
#BARLINEON
#DELAY 0.043
EXAM4:r,67,75,m
#SCROLL 0.75
30201201,
20120121,
10201201,
#SCROLL 1.1
#GOGOSTART
3011103000104010,
#SCROLL 0.75
#GOGOEND
10201201,
20120121,
10201201,
#SCROLL 1.1
#GOGOSTART
3011103022204020,
10201120,
1011202010002011,
1011202010112020,
1011202010002000,
10201120,
1011202010002011,
1011202020101110,
1021201010002210,
10201120,
1011202010002011,
1011202010112020,
1011202010002000,
10201120,
1011202010002011,
1011202020101110,
2220111040004000,
#SCROLL 1.25
1110201020102220,
4010401040101110,
#GOGOEND
#SCROLL 1.1
1000200011201020,
1000201110201020,
1000200011201020,
1000200011201120,
1000200011201020,
1000201110201020,
1120102012101020,
2010211010221020,
1000200011201020,
1000201110201020,
1000200011201020,
1110201110201120,
1000200011201020,
1000201110201020,
1010112010101121,
200100100110400100400100,
1000200011201120,
1000201110201120,
1000201110201120,
1110201011102020,
1000222011201120,
1010201120201120,
1111200011122000,
1122200022112000,
5008,
1121200011102020,
2220111021202220,
1110201120102210,
1000222011201120,
1000201120201120,
50000008,
41414140,
#GOGOSTART
1000200011201120,
1000201110201120,
1000201110201120,
1110201011102020,
1000222011201120,
1010201120201120,
1111200011122000,
1122200022112000,
5008,
1121200011102020,
2220111021202220,
1110201120102210,
1000222011201120,
1000201120201120,
50000008,
1000201110404040,
#SCROLL 0.75
1000211121112111,
2000201120002020,
1010201040104011,
2000300040112000,
#SCROLL 1.1
1121201010201020,
2110201210202020,
11211212,
2111211121212120,
1212121112122121,
2112222211111122,
1121202011202020,
21121122,
1211122111202000,
1120201110102010,
1120201010102010,
21212121,
1000200011201120,
1000201110201120,
1000201110201120,
1110201011102020,
1000222011201120,
1010201120201120,
1110202011102020,
1210202022102020,
5008,
1121200011102020,
2220111021202220,
1110201120102210,
1000222011201120,
1000201120201120,
1121221211211121,
2121121112211212,
#GOGOEND
,
,
#NEXTSONG Seismic Shake,DeBisco,,2.ogg,350,80,10,3
#BPMCHANGE 155
#MEASURE 4/4
#SCROLL 1.0
#BARLINEON
#DELAY 0.193
EXAM4:r,0,0,m
#MEASURE 4/4
1011202010201022,
1011201020102010,
2011201020102010,
2011201020
#SCROLL 3
204000,
#BPMCHANGE 310
#MEASURE 4/4
#SCROLL 1
20112122,
10112122,
#SCROLL 1.5
40
#SCROLL 1
112122,
10112122,
#SCROLL 1.5
4000
#SCROLL 1
111010102010,
#SCROLL 1.5
4000
#SCROLL 1
111010102010,
#SCROLL 1.5
40
#SCROLL 1
11
#SCROLL 1.5
40
#SCROLL 1
11,
#SCROLL 1.5
4
#SCROLL 1
222,
#SCROLL 1.5
40
#SCROLL 0.75
122121,
10122121,
1000102020102011,
11122121,
10122121,
10122121,
1000102020102011,
11122121,
10122121,
10122121,
1000102020102011,
11122121,
10122121,
10122121,
10122121,
212121212120,
#SCROLL 1.5
40
#SCROLL 0.75
222121,
12222121,
12221212,
10222121,
12222121,
12222121,
12221212,
1000202020101110,
#SCROLL 1.5
40
#SCROLL 0.75
222121,
12222121,
#SCROLL 1.5
4
#SCROLL 0.75
2221212,
10222121,
#SCROLL 1.5
40
#SCROLL 0.75
222121,
#SCROLL 1.5
40
#SCROLL 0.75
222121,
#SCROLL 1.5
40
#SCROLL 0.75
111010
#SCROLL 1.5
40
#SCROLL 0.75
111010,
212121212120,
#BPMCHANGE 155
#SCROLL 3
4,
00000004,
4,
00044040,
4,
00000004,
4,
000000000400404040404040,
#BPMCHANGE 310
#SCROLL 1.5
40
#SCROLL 0.6
202222,
20202222,
20202222,
20202222,
20202222,
02202202,
022220
#SCROLL 1.5
30,
44,
40
#SCROLL 0.75
222022,
02202022,
#SCROLL 1.5
40
#SCROLL 0.75
222022,
02222222,
#SCROLL 1.5
40
#SCROLL 0.75
220222,
#SCROLL 1.5
40
#SCROLL 0.75
220222,
#SCROLL 1.5
4111,
#SCROLL 1.43
2
#SCROLL 1.36
1
#SCROLL 1.3
2
#SCROLL 1.24
1
#SCROLL 1.18
2
#SCROLL 1.12
1
#SCROLL 1.07
2
#SCROLL 1.02
1
#SCROLL 0.97
2
#SCROLL 0.92
1
#SCROLL 0.87
20,
#SCROLL 0.75
11,
22222000,
#SCROLL 1
#GOGOSTART
12010201,
02110201,
12010201,
02110201,
12010201,
02110201,
12010201,
0020111010201010,
12010201,
02110201,
12010201,
02110201,
12010201,
02110201,
12010201,
#GOGOEND
212121212120,
#GOGOSTART
12010201,
0020101000200011,
12010201,
0020101000200012,
12010201,
0020101000200011,
12010201,
0020111010201011,
#GOGOEND
12011201,
1020001011200010,
12011201,
1020001110200010,
1020201110202011,
1020201110202011,
12211221,
#SCROLL 0.4
200200100100202020100000,
#SCROLL 1
#GOGOSTART
11211021,
11211021,
12121212,
1110202010002000,
10211021,
11211021,
10211021,
1110202010102010,
11211021,
11211021,
12121212,
1110202010002000,
10211021,
11211021,
1120202011202020,
#GOGOEND
212121212120,
#GOGOSTART
11211021,
11211021,
12121212,
1110202010002000,
10211021,
11211021,
10211021,
1110202010102010,
11211021,
11211021,
12121212,
1110202010002000,
10211021,
11211021,
33333333,
#SCROLL 0.75
#GOGOEND
212121212120,
11,
222220
#SCROLL 1
40,
#SCROLL 4
3,
,
#NEXTSONG Shockwave,Yonokid,,3.ogg,350,80,10,3
#BPMCHANGE 225
#MEASURE 4/4
#SCROLL 1.0
#BARLINEON
EXAM4:r,26,32,m
#MEASURE 8/4
#SCROLL 0.5
1010000101010010,
2020000202020000,
1010000101010010,
2020000202020000,
1010000101010010,
2020000202020000,
1010000101010010,
200000200200000200000100000100000100202020202020,
1021020102011020,
1021020102011020,
1021020102011020,
1021020102011020,
1021020102011020,
1021020102011020,
1021020102011020,
1021020102012010,
2011201120112121,
2011201121120120,
2020202120202021,
20202020202020202222222222222222,
10112010202210201021101020000000,
#GOGOSTART
100000100100100000100100200000200200200000200200200000200000200000200000200020002000200020002000,
100000101010200100202020100000101010200100100100,
100000100100100000100100200000200200200000200200200000200000200000200000200020002000200020002000,
100000000000100010001000200000100000200020002000100000100100200000100000200100200200100000000000,
100000100100100000100100200020002000200020001000200020002000200020002000200200200000100100100000,
100100101010202020202020100100100000200200100000,
100000100100100000100100200000200200200000200200200020001000200020001000200020001000200020001000,
100000100100100000100100200010001000200010001000100010001000200020002000100100100100200200200200,
#GOGOEND
1010000101010010,
2020000202020000,
1010000101010010,
2020000202020000,
100200200200100200200200100200200200100200200222,
100200200200102020202020100200200200100200220220,
100200200200100200200200100200200200100200200222,
100200200200102020202020100200200200202020101010,
200100100100200100100100200100100100200100200111,
200100100100201010101010200100100200100100220110,
200100200100200100200100200100200100200100200111,
200000200000200000200000200000200000200000200000200200200200200200200200202020202020202020202020,
102000000000200100100200000200000100200010002000,
#MEASURE 4/4
#GOGOSTART
#SCROLL 2
300334,
403040
#SCROLL 1
222222,
1011201000201120,
1011201110222050,
0000008010112020,
0010002000112000,
1111221110221022,
221221221221,
344344,
112121112121,
1011201020221020,
1111203000300060,
0008,
100000100100200000100000200020001000200200200100,
#GOGOEND
1011201110201110,
1020121011102210,
1011201110201110,
100000200000100200100000200020002000200020002000,
1011201110201110,
1020121011102210,
1011201110201110,
1020121022221111,
1011201110201110,
1020121011102210,
1011201110201110,
1020121022221110,
111212111212,
111212111212,
100020002000100020002000100200200100200200100200,
100010101000100010101000100200200100200200100200,
78
#SCROLL 2
300000,
#SCROLL 1
,
,
,
,
#NEXTSONG DON'T LOOK BACK,TFD500,,4.ogg,350,80,10,3,true
#BPMCHANGE 200
#MEASURE 4/4
#SCROLL 1.0
#BARLINEON
#DELAY 0.0095
EXAM4:r,86,95,m
#SCROLL 0.5
12121212,
#BARLINEOFF
02020202,
12121212,
02020202,
#BARLINEON
12121212,
#BARLINEOFF
02020202,
12121212,
02020202,
#SCROLL 1
#BARLINEON
1022102010201000,
12121210,
1022102010201000,
12121210,
1022102010201000,
12121210,
1022102010201000,
12121210,
11121112,
11122211,
11221122,
11222211,
11121112,
11122211,
11221122,
11222211,
3012102012212010,
02020211,
3012102012222010,
02020211,
3012102012212010,
02020211,
3012102012222010,
02020211,
1212
#SCROLL 1.25
1212,
#SCROLL 1.5
1212
#SCROLL 1.75
1212
#SCROLL 2
50000080,
#SCROLL 1
#BPMCHANGE 190
70
#BPMCHANGE 180
00
#BPMCHANGE 175
00
#BPMCHANGE 150
0
#BPMCHANGE 140
0,
#BARLINEOFF
#BPMCHANGE 130
0
#BPMCHANGE 110
0
#BPMCHANGE 90
0
#BPMCHANGE 70
0
#BPMCHANGE 200
80
#SCROLL 3
68,
#BARLINEON
#BPMCHANGE 225
#GOGOSTART
#SCROLL 1
3022102012221022,
1022102212221212,
1220102210201222,
1022102212221212,
0212102210221222,
1022102212201212,
1022102212201222,
100000100000100000100100100000100000101010101010,
1120201120201120,
1220201210201120,
1220201220201120,
2110211021112120,
1210101220201120,
2120202110202120,
1220201220201120,
100100200000100000100200100000200000202020202020,
#GOGOEND
1110201110201110,
1210201210201210,
1110201110201120,
100100200000100000200200100200200000202020202020,
1110201110201220,
1022201022201220,
200020001000200020001000200200100000200200100000,
100100200000100200200000100100200200102020202020,
1000221120102120,
1120102021120120,
100000100100200000100000200100200000202020200000,
#SCROLL 1.5
#GOGOSTART
303060806080
#SCROLL 3
6008,
#GOGOEND
#SCROLL 1
1011201022112011,
202010100000202010100000200200100000200100100000,
202020200000202020200000200200100000200100200000,
1210212021121120,
#SCROLL 0.75
10101011,
01101011,
10101110,
10111011,
11111011,
10101011,
10111111,
3330,
#SCROLL 1
1111,
1100,
#BPMCHANGE 450
#MEASURE 8/4
#SCROLL 0.5
11111111,
11110000,
#BPMCHANGE 900
#MEASURE 16/4
#SCROLL 0.25
1111111111111111,
1111111111111111,
#SCROLL 1
6,
#BPMCHANGE 225
#MEASURE 4/4
800
#SCROLL 3
4,
#GOGOSTART
#SCROLL 1
3022102012221022,
1022102212221212,
1220102210201222,
1022102212221212,
0212102210221222,
1022102212201212,
1022102212201222,
100000100000100000100100100000100000101010101010,
1120201120201120,
1220201210201120,
1220201220201120,
2110211021112120,
1210101220201120,
2120202110202120,
1220201220201120,
#GOGOEND
#BPMCHANGE 250
100100200000100000100200
#BPMCHANGE 275
100000200000202020202020,
#BPMCHANGE 300
#GOGOSTART
12121212,
12121211,
12121212,
12121211,
21121212,
1020102010111010,
12121212,
11111111,
12121212,
12121211,
1020102010201111,
12121211,
21121212,
12121211,
12121212,
1010101011101110,
3600,
0008,
44,
3,
0000000022201110,
#GOGOEND
#BPMCHANGE 75
#SCROLL 4
3,
,
,
,
#END
