TITLE:Breaking Point
SUBTITLE:--Yonokid
WAVE:Breaking Point.ogg
PREIMAGE:Cover.jpg
BPM:180
OFFSET:-0
DEMOSTART:109.333
SCOREMODE:2
MAKER:bol

COURSE:Edit
LEVEL:10.4
BALLOON:
SCOREINIT:790
SCOREDIFF:0
#START
#SCROLL 2
2
#SCROLL 1.9
2
#SCROLL 1.8
2
#SCROLL 1.7
2
#SCROLL 1.6
2
#SCROLL 1.55
2
#SCROLL 1.5
2
#SCROLL 1.45
2
#SCROLL 1.4
1
#SCROLL 1.35
2
#SCROLL 1.3
2
#SCROLL 1.25
2
#SCROLL 1.2
2
#SCROLL 1.15
2
#SCROLL 1.1
2
#SCROLL 1.05
2,
#SCROLL 1
12,
3003003020302211,
2000211220002122,
10212300,
1000111120120120,
3021203020102100,
1000001120001112,
2211221122112211,
1002112110021122,
1002112110021122,
1002112110021122,
1002112110021221,
1022201022201020,
1022201022201020,
1222221222221222,
1010100020020020,
#SCROLL 0.8
1010101120101011,
1011101120101211,
1010101120101011,
2221022210012212,
1010101120101011,
1110101120111011,
1001112010021121,
121212111111,
#SCROLL 0.9
1011201110112012,
1011211210112211,
1011201110112012,
1011201111222121,
1010201110102012,
1010201112212212,
102010200100100200100100200200100200100200200100,
100000201010200000200100200000200100200200100200,
#GOGOSTART
#SCROLL 1
2011201120112112,
2011201220122011,
2011201220112012,
2011201121212121,
2011201120112101,
2111201120112110,
2011211120112112,
2011211120212021,
2011201121122112,
2011211120112011,
2110211021102110,
2011201121212121,
2011201120112121,
2011201121121120,
2011201121111212,
100200200100200100200100201020102010200200100200,
#GOGOEND
1,
#SCROLL 0.75
,
22,
20020020,
2000000020020020,
20020020,
2000000000001112,
2221221121112111,
1,
0000000000001111,
2000111220001122,
20120120,
2000111120120120,
20020020,
2,
5008,
#SCROLL 3
3,
3003003000300300,
3,
30000300,
3,
3003003000300300,
300000000000
#SCROLL 1
1112,
2221222122112222,
12121212,
1021102010201120,
12121212,
1021102010201120,
1122112211221122,
1122112211221122,
111111111111111111111111,
111111111111111111111111,
211411411411,
#GOGOSTART
#SCROLL 1.2
1021102010211212,
1222122211221212,
1021202010212020,
1120112012222111,
1020112020121120,
1222211121222122,
1020112011201122,
2211221111221122,
1021102010211212,
1222122211221212,
1021202010212020,
1120112012222110,
1221221222122122,
1221221222122122,
1021102011201112,
2211221122211122,
#GOGOEND
1000000000000
#SCROLL 1
222,
#BARLINEOFF
1,
#END

COURSE:Oni
LEVEL:9
BALLOON:
SCOREINIT:1100
SCOREDIFF:0
#START
#SCROLL 2
5008,
#SCROLL 1
12,
3003003020300300,
12,
10002300,
1000000020020020,
3003003020300300,
1000000020001120,
2210221021102110,
1002102010021120,
1002102010021120,
1002102010021120,
1002102010021120,
22222222,
22222222,
2222222222222222,
0010100020020020,
1000100020010010,
0011110020010010,
1000100020010010,
2221022210012220,
1000100020010010,
0011110020010010,
2001012010002010,
303030111111,
1000201000102011,
1000201000102011,
1000201000102011,
1000201210212212,
1000201210002012,
1000201210212210,
1021202120212210,
1011201220122212,
#GOGOSTART
2000200020112010,
2000201120102010,
2000200020112010,
2000201120102010,
2000200020112010,
2000201120102010,
2000201120002011,
2010201022112210,
2000200020120120,
2000211120102000,
2000200020112010,
2000201120102010,
2000200020112010,
2000201120102010,
1110201120102210,
2021202122112210,
#GOGOEND
1,
0000000000001111,
2000111120001111,
20020020,
2000000020020020,
20020020,
2000000000001122,
2221221021112110,
1,
0000000000001111,
2000111120001111,
20220020,
2000000020020020,
20020020,
1,
5008,
3,
3003003000300300,
3,
30000300,
3,
3003003000300300,
3000000000001122,
2221221021112110,
12121212,
12121212,
12121212,
12121212,
1110111011101110,
1110111011101110,
1111111111111111,
1111111111111110,
211211211211,
#GOGOSTART
1022102010201120,
1022102011201120,
3000222030002220,
1022102011201120,
1022102010210120,
2210211011201220,
1000202010102022,
2210221011201120,
1022102010201120,
1022102011201120,
3000222030002220,
1022102011201120,
3003003000300300,
3003003000300300,
1020102210201022,
2211221111221222,
#GOGOEND
1000000000000222,
#BARLINEOFF
1,
#END

COURSE:Hard
LEVEL:7
BALLOON:12,3
SCOREINIT:1820
SCOREDIFF:0
#START
#SCROLL 2
5008,
#SCROLL 1
32,
3003003000300300,
32,
00002300,
3000000020020020,
3003003000300300,
32,
5008,
10121012,
10121012,
10121012,
10121012,
22202220,
22202220,
22222222,
0010100020020020,
1000100020010010,
0010010020010010,
1000100020010010,
2001020010010020,
1000100020010010,
0010010020010010,
2001002010002010,
111333,
10210121,
10210121,
10210121,
10210121,
10211021,
10211021,
11222120,
12112220,
#GOGOSTART
20202021,
20202021,
20202021,
20212120,
20202021,
20202021,
20202021,
22221110,
20202021,
20202021,
20202021,
20212120,
20202021,
2000200020010020,
20212021,
22225080,
#GOGOEND
1,
,
22,
20020020,
2000000020020020,
20020020,
2007,
0008,
1,
,
22,
20020020,
2000000020020020,
20020020,
1,
5008,
3,
3003003000300300,
3,
30000300,
3,
3003003000300300,
3,
3,
1111,
1111,
1111,
1111,
11101110,
11101110,
11111110,
11111111,
4444,
#GOGOSTART
12101210,
12121110,
30223022,
30223030,
10121210,
12121210,
10221122,
58585858,
12101210,
12121110,
30223022,
30223030,
3003003000300300,
3003003000300300,
10221122,
68686868,
#GOGOEND
1000000000000700,
#BARLINEOFF
8,
#END

COURSE:Normal
LEVEL:5
BALLOON:10,2
SCOREINIT:2530
SCOREDIFF:0
#START
5008,
3,
3003003000300300,
3,
00000300,
3,
3003003000300300,
3,
5008,
1111,
1111,
1111,
1111,
2222,
2222,
22202222,
,
32,
12,
12,
12,
12,
12,
12,
508608,
3202,
1202,
1202,
1202,
1212,
1212,
10111010,
20202220,
#GOGOSTART
2222,
2222,
2222,
20202220,
2222,
2222,
2222,
5008,
2222,
2222,
2222,
20202220,
2222,
2222,
2222,
5008,
#GOGOEND
1,
,
22,
20020020,
2000000020020020,
20020020,
2007,
0008,
1,
,
22,
20020020,
2000000020020020,
20020020,
1,
5008,
3,
3003003000300300,
3,
30000300,
3,
3003003000300300,
3,
3,
11,
11,
11,
11,
3111,
3111,
31103110,
31103110,
6008,
#GOGOSTART
3111,
10101110,
3232,
3233,
30101011,
30101011,
30101011,
5008,
3111,
10101110,
3232,
3233,
3003003000300300,
3003003000300300,
30101011,
6008,
#GOGOEND
1000000000000700,
#BARLINEOFF
8,
#END

COURSE:Normal
LEVEL:5
BALLOON:10,2
SCOREINIT:2530
SCOREDIFF:0
#START
5008,
3,
3003003000300300,
3,
00000300,
3,
3003003000300300,
3,
5008,
1111,
1111,
1111,
1111,
2222,
2222,
22202222,
,
32,
12,
12,
12,
12,
12,
12,
508608,
3202,
1202,
1202,
1202,
1212,
1212,
10111010,
20202220,
#GOGOSTART
2222,
2222,
2222,
20202220,
2222,
2222,
2222,
5008,
2222,
2222,
2222,
20202220,
2222,
2222,
2222,
5008,
#GOGOEND
1,
,
22,
20020020,
2000000020020020,
20020020,
2007,
0008,
1,
,
22,
20020020,
2000000020020020,
20020020,
1,
5008,
3,
3003003000300300,
3,
30000300,
3,
3003003000300300,
3,
3,
11,
11,
11,
11,
3111,
3111,
31103110,
31103110,
6008,
#GOGOSTART
3111,
10101110,
3232,
3233,
30101011,
30101011,
30101011,
5008,
3111,
10101110,
3232,
3233,
3003003000300300,
3003003000300300,
30101011,
6008,
#GOGOEND
1000000000000700,
#BARLINEOFF
8,
#END

COURSE:Easy
LEVEL:4
BALLOON:8,2
SCOREINIT:3830
SCOREDIFF:0
#START
5008,
3,
30000300,
3,
00000300,
3,
30000300,
3,
5008,
11,
11,
11,
11,
2220,
2220,
5,
8,
32,
12,
12,
12,
12,
12,
12,
5008,
3202,
0202,
1202,
0202,
11,
11,
1111,
2258,
#GOGOSTART
1110,
1110,
11,
1110,
2220,
2220,
22,
5008,
1110,
2220,
11,
2220,
1110,
2220,
1212,
5008,
#GOGOEND
1,
,
22,
2,
2,
20020000,
2007,
0008,
1,
,
22,
2,
2,
2,
1,
5008,
3,
30000300,
3,
30000300,
3,
30000300,
3,
3,
11,
11,
11,
11,
3110,
3110,
3131,
3131,
6008,
#GOGOSTART
3212,
1110,
33,
3033,
31,
3110,
3011,
5008,
3212,
1110,
33,
3033,
30000300,
30000300,
3002,
6008,
#GOGOEND
1000000000000700,
#BARLINEOFF
8,
#END
