TITLE:WTF?!
SUBTITLE:--MooX
WAVE:MooX - WTF.ogg
BPM:100
OFFSET:-0.04
DEMOSTART:21
MAKER:bol & MooX
EXPLICIT:1

COURSE:Edit
LEVEL:10.4
BALLOON:
SCOREINIT:1190
SCOREDIFF:0
#START
,
1000201210102010,
1000201210112212,
1000201210102010,
10000000200010201010101120102222,
1000201210102010,
1000201211112040,
1000201210102010,
100000200000102000100100200000000000100100100100200000000000100100200000000000100100200000000000,
#GOGOSTART
10222010201210202012201022101112,
10221010201210201012101000201120,
10222010201210202012201022101112,
1022101020121020
#GOGOEND
1010002000112000,
#GOGOSTART
10222010201210202012201022101122,
10221010201210201012101000201120,
10222010201210202012201022101122,
#GOGOEND
100000000200100000000200100000100000100111200200,
#GOGOSTART
10222010201110201012201022101122,
10221010201210201012101000201120,
10222010201110201012201022101122,
10111020101110201020102010222020,
10222010201110201012201022101122,
10221010201210201012101000201120,
10222010201110201012201022101122,
20201011202010112020101120201122,
#GOGOEND
10000010000010001011101000500800,
2001001021012211,
10101011201010101011101020500800,
10111010201010101110101020500800,
10101110201010111010101021500800,
11101010201011101010101020500800,
10101011201010101011101020500800,
10110020101100201010101020222020,
#GOGOSTART
10001110201120201021101020112020,
10111010201121101010211020102110,
10001111201121201021101020101120,
11111010201120101110211020112010,
10111010201121201021111020112020,
10111110201120111110211020112010,
10001011201120211020111020101121,
10121022101210221012102210201120,
#GOGOEND
#SCROLL 2
3,
#END

COURSE:Oni
LEVEL:8
BALLOON:
SCOREINIT:1690
SCOREDIFF:0
#START
#SCROLL 1.7
,
10211121,
1000201012102012,
10211121,
100000000000200000100000100100100100200000202020,
10211121,
1000200011112040,
10211121,
1221201120020020,
#GOGOSTART
100100000100200000100100000100100100200100101010,
1101201101020220,
100100000100200000100100000100100100200100101010,
11012010
#GOGOEND
11020220,
#GOGOSTART
100100000100200000100100000100100100200100101010,
1101201101020220,
100100000100200000100100000100100100200100101010,
#GOGOEND
10000022100000221001100110222020,
#GOGOSTART
100100000100200000100100000100100100200100101010,
1101201101020220,
100100000100200000100100000100100100200100101010,
10000010200010002010201010222020,
100100000100200000100100000100100100200100101010,
1101201101020220,
100100000100200000100100000100100100200100101010,
10100011101000111010001120202000,
#GOGOEND
1001001011110100,
30000010000010003010001030202022,
1111211111112111,
1111211111020120,
1111211111112111,
10101010201010101010002000102022,
1111211111112111,
1102110211221222,
#GOGOSTART
10111010200010001011101020100010,
1041104110411041,
10111010200010001011101020100010,
10004010100040101010112000102000,
10111010200010001011101020100010,
1041104110411041,
10111010200010001011101020100010,
20201011202010112020101120201000,
#GOGOEND
3,
#END

COURSE:Hard
LEVEL:5
BALLOON:
SCOREINIT:3060
SCOREDIFF:0
#START
#SCROLL 1.7
0,
10211020,
1000200010112010,
10211120,
1000200011112012,
10211120,
1000200011012010,
30201120,
3,
1000201000210110,
1000201011012010,
1000201000210110,
1000200011020210,
1000200010112010,
1000200011010210,
1000200011102010,
10000020100000201000100010111010,
1000201000210210,
1000200011020110,
1000201010112000,
10000000200000001010101020222020,
10201121,
1000200011012010,
1000200210102010,
3040304030403011,
1,
3033,
3002102010221200,
1002102012010210,
3002102010221200,
1022102012010210,
1002102010221200,
1002100211221002,
1000200010112010,
1000200011020210,
1000200010112010,
1002100210102210,
1000200210012110,
1000201000120210,
10210120,
2211221122112210,
3,
#END

COURSE:Normal
LEVEL:4
BALLOON:
SCOREINIT:
SCOREDIFF:
#START
#SCROLL 1.3
0,
10211020,
10201111,
10211110,
10201121,
10201120,
1000200010011010,
30201120,
3,
10210201,
10211011,
1000201000100110,
1000200011001100,
1000200010111010,
10201022,
10201111,
1000200110101010,
1000201000200200,
1000200011010110,
10211120,
1000200010102220,
10201121,
1000200010011010,
10201121,
3000300030003011,
1,
3033,
3002002010002020,
1002002010010110,
3002002010020000,
1002200110002010,
1000202010001001,
1002200010002020,
10201121,
10201021,
1000200010111010,
10201121,
10201021,
1000201000110110,
10210120,
21212121,
3,
#END

COURSE:Easy
LEVEL:4
BALLOON:
SCOREINIT:
SCOREDIFF:
#START
#BPMCHANGE 100
0,
1212,
10201111,
10201110,
10201021,
1212,
10201011,
3212,
3,
10110011,
10111011,
10201101,
10201011,
10201111,
10201022,
20201111,
10202201,
1000202000200200,
1000200010010100,
10022220,
10201111,
10201121,
10201011,
10202222,
4333,
3,
3033,
30201022,
20111010,
30222020,
2002002000001010,
10111010,
10201022,
2212,
10201011,
10201011,
10201111,
10201022,
20220111,
1211,
20201011,
3,
#END
