TITLE:Athazagoraphobia
SUBTITLE:--Derpikarp
BPM:180
WAVE:Athazagoraphobia.ogg
OFFSET:0
DEMOSTART:84.570
MAKER:bol, colin & Komi

COURSE:Edit
LEVEL:10.6
BALLOON:
SCOREINIT:580
SCOREDIFF:0
NOTESDESIGNER4:bol, colin & Komi
#START
#SCROLL 0.5
11221122,
#BARLINEOFF
11221221,
11221122,
11222122,
11121112,
11121121,
11221112,
11221222,
#BARLINEON
11221122,
#BARLINEOFF
11221221,
11221122,
11222122,
11121112,
11121121,
11221112,
11221222,
#SCROLL 4
#BARLINEOFF
3,
#SCROLL 0.5
,
#BARLINEON
#MEASURE 1/16
,
#SCROLL 0.6
,
#SCROLL 0.7
,
#SCROLL 0.8
,
#SCROLL 0.9
,
#SCROLL 1
,
#SCROLL 1.1
,
#SCROLL 1.2
,
#SCROLL 1.3
,
#SCROLL 1.4
,
#SCROLL 1.5
,
#SCROLL 1.6
,
#SCROLL 1.7
,
#SCROLL 1.8
,
#SCROLL 1.9
,
#SCROLL 2
,
#SCROLL 2.1
,
#SCROLL 2.2
,
#SCROLL 2.3
,
#SCROLL 2.4
,
#SCROLL 2.5
,
#SCROLL 2.6
,
#SCROLL 2.7
,
#SCROLL 2.8
,
#SCROLL 2.9
,
#SCROLL 3
,
#SCROLL 3.2
,
#SCROLL 3.4
,
#SCROLL 3.6
,
#SCROLL 3.8
,
#SCROLL 4
,
#SCROLL 4.5
,
#SCROLL 1
#MEASURE 4/4
30000000300000003000000022002200,
30000000300000003000000022002200,
30000000300000003000000022002200,
30000000300000003000000022001100,
30000000300000003000000022002200,
30000000300000003000000022002200,
30000000300000003000000022002200,
30000000300000003000000022001100,
30000000300000003000000022002200,
30000000300000003000000022002200,
30000000300000003000000022002200,
30000000300000003000000022001100,
30000000300000003000000022002200,
30000000300000003000000022002200,
30000000300000003000000022002200,
30000000300000003000000022001100,
#BPMCHANGE 210
#GOGOSTART
1011202211102012,
1011202212102120,
1011202211102012,
1011202212102120,
1011202211102012,
1011202212102120,
1011202211102012,
1011202212102120,
1111202010112012,
1011201022112010,
1111202010112012,
1011201022122010,
1111202010112012,
1011201022122010,
1111202010112012,
1011201022112010,
#GOGOEND
#SCROLL 0.75
1011202022221010,
2211201022221010,
1011202022221020,
2211201022112010,
1011202022221010,
2211201022221010,
1011202022221020,
2211201022112010,
#SCROLL 1
1111201011112010,
1111201022112210,
1111201011112010,
1111201021112110,
1111201011112010,
1111201022112210,
1111201011112010,
1111201021112110,
1010201120201122,
1010102010202211,
2010201120201122,
1010102010202211,
2010201120201122,
1010102010202211,
2010201120201122,
1010102010202211,
#GOGOSTART
2011202010112020,
1011202010112010,
1011202010112020,
1011202010112210,
1011202010112010,
1011202010112210,
1011202010201122,
#GOGOEND
1011202010102010,
#GOGOSTART
1111202011112010,
1111202022112020,
1121202011212010,
1121202022112020,
1111202011112010,
1111202022112020,
1121202011212010,
1121202022112020,
1110201110112012,
1110201122112010,
1210201211212012,
1110201122112010,
1110201110112012,
1110201122112010,
1210201211212012,
1110201122112010,
1111202011112010,
1111202022112020,
1121202011212010,
1121202022112020,
1111202011112010,
1111202022112020,
1121202011212010,
1121202022112020,
1011201010112010,
1110201122102110,
1011201010112010,
1110201122102110,
1011201010112010,
1110201122102110,
1011201010112010,
1110201122102110,
#GOGOEND
#SCROLL 1.5
30
#SCROLL 1
100012
#SCROLL 1.5
30
#SCROLL 1
101210,
#SCROLL 1.5
30
#SCROLL 1
100012
#SCROLL 1.5
30
#SCROLL 1
102210,
#SCROLL 1.5
30
#SCROLL 1
100012
#SCROLL 1.5
30
#SCROLL 1
101210,
#SCROLL 1.5
30
#SCROLL 1
100012
#SCROLL 1.5
30
#SCROLL 1
102210,
#SCROLL 1.5
30
#SCROLL 1
100012
#SCROLL 1.5
30
#SCROLL 1
101210,
#SCROLL 1.5
30
#SCROLL 1
100012
#SCROLL 1.5
30
#SCROLL 1
102210,
#SCROLL 1.5
30
#SCROLL 1
100012
#SCROLL 1.5
30
#SCROLL 1
101210,
#SCROLL 1.5
30
#SCROLL 1
100012
#SCROLL 1.5
30
#SCROLL 1
102210,
#SCROLL 1.5
30
#SCROLL 1
100012
#SCROLL 1.5
30
#SCROLL 1
112012,
#SCROLL 1.5
30
#SCROLL 1
100012
#SCROLL 1.5
30
#SCROLL 1
112210,
#SCROLL 1.5
30
#SCROLL 1
100012
#SCROLL 1.5
30
#SCROLL 1
112012,
#SCROLL 1.5
30
#SCROLL 1
100012
#SCROLL 1.5
30
#SCROLL 1
112210,
#SCROLL 1.5
30
#SCROLL 1
100012
#SCROLL 1.5
30
#SCROLL 1
112012,
#SCROLL 1.5
30
#SCROLL 1
100012
#SCROLL 1.5
30
#SCROLL 1
112210,
#SCROLL 1.5
30
#SCROLL 1
100012
#SCROLL 1.5
30
#SCROLL 1
112012,
#SCROLL 1.5
30
#SCROLL 1
100012
#SCROLL 1.5
30
#SCROLL 1
102210,
#SCROLL 999
5858585858585858585858585858585858585858585858585858585858585858,
#END

COURSE:Oni
LEVEL:8
BALLOON:
SCOREINIT:790
SCOREDIFF:0
NOTESDESIGNER3:bol
#START
#BPMCHANGE 180
22202220,
22202220,
12201220,
12201220,
11201120,
11201120,
11101110,
11101110,
12101210,
12101210,
21202120,
21202120,
11201120,
11201120,
21102110,
21102112,
3,
,
,
,
40404044,
30303033,
40404044,
30303033,
40404044,
30303033,
40404044,
30303033,
40404044,
30303033,
40404044,
30303033,
40404044,
30303033,
40404044,
30303033,
#BPMCHANGE 210
#GOGOSTART
1010201110102011,
1010201122102010,
1010201110102011,
1010201122102010,
1010201110102011,
1010201122102010,
1010201110102011,
1010201122102010,
1010201110102002,
1010201122102000,
1010201110102002,
1010201122102000,
1010201110102002,
1010201122102000,
1010201110102002,
1010201122102000,
#GOGOEND
1010200011110000,
1010200022220000,
1010200011110000,
1010200022220000,
1010200011110000,
1010200022220000,
1010200011110000,
1010200022220000,
1010200011102001,
1010201122102000,
1010200011102001,
1010201122102002,
1010200011102001,
1010201122102000,
1010200011102001,
1010201122102002,
12021202,
1120002010200020,
12021202,
1120002010200020,
12021202,
1120002010200020,
12021202,
1120002010200020,
#GOGOSTART
1010201110102011,
1010201122102010,
1010201110102011,
1010201122102010,
1010201110102011,
1010201122102010,
1010201110102000,
#GOGOEND
1110111011111110,
#GOGOSTART
1010201110102011,
1010201122102010,
1010201110102011,
1010201122102010,
1010201110102011,
1010201122102010,
1010201110102011,
1010201122102010,
1010201110102002,
1010201122102000,
1010201110102002,
1010201122102000,
1010201110102002,
1010201122102000,
1010201110102002,
1010201122102000,
1010201110102011,
1010201122102010,
1010201110102011,
1010201122102010,
1010201110102011,
1010201122102010,
1010201110102011,
1010201122102010,
1010200011102001,
1010201122102000,
1010200011102001,
1010201122102002,
1010200011102001,
1010201122102000,
1010200011102001,
1010201122102002,
#GOGOEND
11010101,
22020202,
12020202,
12020201,
11010101,
22020202,
12020202,
12020201,
12020202,
12020202,
12020202,
12020201,
12020202,
12020202,
12020202,
12020201,
#SCROLL 999
50000008,
#END

COURSE:Hard
LEVEL:6
BALLOON:
SCOREINIT:1340
SCOREDIFF:0
NOTESDESIGNER2:Colin & bol
#START
1,
,
1,
,
1,
,
1,
,
5,
00000008,
5,
00000008,
5,
00000008,
5,
,
8,
,
,
,
3333,
3333,
3333,
3333,
3333,
3333,
3333,
3333,
3333,
3333,
3333,
3333,
3333,
3333,
3333,
3333,
#BPMCHANGE 210
#GOGOSTART
10201120,
1110201010102000,
10201120,
1110201010102000,
10201120,
1110201010102000,
10201120,
1110201010102000,
10201120,
1110201010102000,
10201120,
1110201010102000,
10201120,
1110201010102000,
10201120,
1110201010102000,
#GOGOEND
10001100,
1110001010100000,
10001100,
1110001010100000,
10001100,
1110001010100000,
10001100,
1110001010100000,
10201120,
1110200010102000,
10201120,
1110200010102000,
10201120,
1110200010102000,
10201120,
1110200010102000,
11010100,
11010100,
11010100,
11010100,
11010100,
11010100,
11010100,
11010100,
#GOGSTART 21201120,
21201120,
21201120,
21201120,
21201120,
21201120,
21201120,
#GOGOEND
21201120,
#GOGOSTART
10201120,
1110201010102000,
10201120,
1110201010102000,
10201120,
1110201010102000,
10201120,
1110201010102000,
10201120,
1110201000102000,
10201120,
1110201000102000,
10201120,
1110201000102000,
10201120,
1110201000102000,
10201120,
1110200010102000,
10201120,
1110200010102000,
10201120,
1110200010102000,
10201120,
1110200010102000,
10201120,
11210120,
10201120,
11210120,
10201120,
11210120,
10201120,
11210120,
#GOGOEND
11,
11001100,
11,
11001100,
11,
11001100,
11,
11001100,
11,
11001100,
11,
11001100,
11,
11001100,
11,
11001100,
#SCROLL 999
50000008,
#END

COURSE:Normal
LEVEL:6
BALLOON:
SCOREINIT:1740
SCOREDIFF:0
NOTESDESIGNER1:bol
#START
#SCROLL 0.75
1,
,
1,
,
1,
,
1,
,
1,
02,
1,
02,
1,
02,
1,
02,
3,
,
,
,
33,
34,
33,
34,
33,
34,
33,
34,
33,
34,
33,
34,
33,
34,
33,
34,
#BPMCHANGE 210
#GOGOSTART
10201120,
10210120,
10201120,
10210120,
10201120,
10210120,
10201120,
10210120,
10201120,
10210120,
10201120,
10210120,
10201120,
10210120,
10201120,
10210120,
#GOGOEND
10001100,
11011100,
10001100,
11011100,
10001100,
11011100,
10001100,
11011100,
10201120,
11211020,
10201120,
11211020,
10201120,
11211020,
10201120,
11211020,
10001100,
11011100,
10001100,
11011100,
10001100,
11011100,
10001100,
11011100,
#GOGOSTART
00220022,
00210021,
00220022,
00210021,
00220022,
00210021,
00220022,
#GOGOEND
10101110,
#GOGOSTART
10201120,
10210120,
10201120,
10210120,
10201120,
10210120,
10201120,
10210120,
10201120,
11211020,
10201120,
11211020,
10201120,
11211020,
10201120,
11211020,
10201120,
10210120,
10201120,
10210120,
10201120,
10210120,
10201120,
10210120,
10201120,
11201120,
10201120,
11201120,
10201120,
11201120,
10201120,
11201120,
#GOGOEND
11,
11,
11,
11,
11,
11,
11,
11,
11,
11,
11,
11,
11,
11,
11,
11,
#SCROLL 999
50000008,
#END

COURSE:Easy
LEVEL:4
BALLOON:100
SCOREINIT:3160
SCOREDIFF:0
NOTESDESIGNER0:Colin & bol
#START
#SCROLL 0.5
#MEASURE 8/4
1 ,
1 ,
1 ,
1 ,
1 ,
1 ,
1 ,
1 ,
3 ,
,
3
3,
3
3,
3
3,
3
3,
3
3,
3
3,
3
3,
3
3,
#BPMCHANGE 210
#GOGOSTART
1202
1202,
1202
1202,
1202
1202,
1202
1202,
1212
1210,
1212
1210,
1212
1210,
1212
1210,
#GOGOEND
7 ,
,
,
0000
0008,
11
11,
11
11,
11
11,
11
11,
11
11,
1
1,
11
11,
1
1,
#GOGOSTART
1202
0202,
0202
0202,
0202
0202,
0202
#GOGOEND
5008,
#GOGOSTART
1202
1202,
1202
1202,
1202
1202,
1202
1202,
1212
1212,
1212
1212,
1212
1212,
1212
1212,
1110
2220,
1110
2220,
1110
2220,
1110
2220,
1212
1212,
1212
1212,
1212
1212,
1212
1212,
#GOGOEND
1
1,
1
1,
1
1,
1
1,
1
1,
1
1,
1
1,
1
1,
#SCROLL 999
58,
#END
