TITLE:DON'T LOOK BACK
SUBTITLE:--TFD500
BPM:200
WAVE:DON'T LOOK BACK.ogg
OFFSET:-0.0095
DEMOSTART:44.082
LYRICS:DON'T LOOK BACK.vtt
SCOREMODE:2
PREIMAGE:DLB.png
MAKER:bol

COURSE:Edit
LEVEL:12
BALLOON:2
SCOREINIT:500
SCOREDIFF:0
#START
#SCROLL 0.5
1120102011201020,
#BARLINEOFF
02020202,
1220102012201020,
02020201,
#BARLINEON
1120102011201020,
#BARLINEOFF
02020202,
1220102012201020,
02020201,
#BARLINEON
1020112110201121,
#BARLINEOFF
1021112010211120,
1020112110201121,
1021112010211120,
#BARLINEON
1020112110201121,
#BARLINEOFF
1021112010211120,
1020112110201121,
1021112010211120,
#BARLINEON
1011202012112020,
#BARLINEOFF
1011202022112010,
1012202012212020,
1012202022122010,
#BARLINEON
1011202012112020,
#BARLINEOFF
1011202022112010,
1012202012212020,
1012202022122010,
#BARLINEON
#SCROLL 1
1121221212212221,
#SCROLL 0.5
01122221,
#SCROLL 1
1221211212212221,
#SCROLL 0.5
01122221,
#SCROLL 1
1121221212212221,
#SCROLL 0.5
01122221,
#SCROLL 1
1221211212212221,
#SCROLL 0.5
01122221,
#SCROLL 1
1212
#SCROLL 1.25
1212,
#SCROLL 1.5
100200100200
#SCROLL 1.75
100200100200
#SCROLL 2
101020101020
#SCROLL 2.5
102020102020,
#SCROLL 1
#BPMCHANGE 190
202010
#BPMCHANGE 180
202010
#BPMCHANGE 175
201210
#BPMCHANGE 150
201
#BPMCHANGE 140
210,
#BPMCHANGE 130
200100
#BPMCHANGE 110
200200
#BPMCHANGE 90
200100
#BPMCHANGE 70
200200
#BPMCHANGE 200
202010202010
#SCROLL 4
600000000800,
#BPMCHANGE 225
#GOGOSTART
#SCROLL 1
300000200200100000200000100200202020100000202020,
102020200000100200200200100000202020100200100200,
1022122011221222,
10002020102020201020200010201122,
000200100200100000200200100202020200100000202020,
1220122210221212,
100000200200100000200200102020002020100100200200,
100000000000100000000000100000000000100000100000100010001000100010001000100100100100100100100000,
1121201121201122,
1221211211211212,
1221201221201121,
2111211121112112,
1211201221201121,
2121212111212122,
1221201221201121,
100100200100100200100200100200200100202010202020,
#GOGOEND
1121201121201121,
2112202112202212,
1111201111201112,
100100200100100000200200100200200000202020202020,
1111201111201220,
1122201122201122,
200020001000200020001000200100200100200100100100,
100000100000200000100000200000200000100000200000100010001000200020002000100100100100200200200000,
#SCROLL 4
6080
#SCROLL 1
221120102121,
1120102021121020,
100000100100200000100000200200100200201020202020,
#SCROLL 1.5
#GOGOSTART
30003000102000102020102011111111,
#GOGOEND
#SCROLL 1
1011201021122111,
202010100100202010100200200200100000200100100000,
202020200100202020200100200200100000200100100200,
1212112112121221,
#SCROLL 0.75
1
#SCROLL 1
2
#SCROLL 0.75
1
#SCROLL 1
2
#SCROLL 0.75
1
#SCROLL 1
2
#SCROLL 0.75
11,
#SCROLL 1
2
#SCROLL 0.75
11
#SCROLL 1
2
#SCROLL 0.75
1
#SCROLL 1
2
#SCROLL 0.75
11,
1
#SCROLL 1
2
#SCROLL 0.75
1
#SCROLL 1
2
#SCROLL 0.75
111
#SCROLL 1
2,
#SCROLL 0.75
1
#SCROLL 1
2
#SCROLL 0.75
111
#SCROLL 1
2
#SCROLL 0.75
11,
11111
#SCROLL 1
2
#SCROLL 0.75
11,
1
#SCROLL 1
2
#SCROLL 0.75
1
#SCROLL 1
2
#SCROLL 0.75
1
#SCROLL 1
2
#SCROLL 0.75
11,
1
#SCROLL 1
2
#SCROLL 0.75
111111,
3330,
#SCROLL 1
3333,
3300,
#BPMCHANGE 450
#MEASURE 8/4
33333333,
33330000,
#BPMCHANGE 900
#MEASURE 16/4
3333333333333333,
3333333333333333,
300030003000300030003000300030003000300030003000300030003000300030003000300300300300300300300300,
#BPMCHANGE 225
#MEASURE 4/4
000
#SCROLL 8
4,
#GOGOSTART
#SCROLL 1
300000200200100000200000100200202020100000202020,
102020200000100200200200100000202020100200100200,
1022122011221222,
10002020102020201020200010201121,
000200100200100000200200100202020200100000202020,
100200200000102020200200100000200200101020100200,
100000200200100000200200102020002020100100200200,
100000000000100000000000100000000000100000100000100010001000100010001000100100100100100100100000,
1121201121201122,
1221211211211212,
1221201221201121,
2111211221112112,
1211201221201121,
2121212112121221,
1221201221201121,
#GOGOEND
#BPMCHANGE 250
100100200100100200100200
#BPMCHANGE 275
100200200100202010202020,
#BPMCHANGE 300
#GOGOSTART
1022102012021022,
1220102210221212,
1022102012221020,
1022122212102212,
1022102012021022,
1220101210221212,
1022102012221222,
1020122212121212,
1022102210221012,
1022102211221212,
1022102210221111,
1022121210221212,
1022102210221012,
1022102211221212,
1012102210221212,
1012102011221212,
78
#SCROLL 4
600000,
0008,
#SCROLL 1
44,
3,
0000000021212112,
#GOGOEND
#BPMCHANGE 75
3,
,
,
#END

COURSE:Oni
LEVEL:10.7
BALLOON:30
SCOREINIT:740
SCOREDIFF:0
#START
#SCROLL 0.5
12121212,
#BARLINEOFF
02020202,
12121212,
02020202,
#BARLINEON
12121212,
#BARLINEOFF
02020202,
12121212,
02020202,
#SCROLL 1
#BARLINEON
1022102010201000,
12121210,
1022102010201000,
12121210,
1022102010201000,
12121210,
1022102010201000,
12121210,
11121112,
11122211,
11221122,
11222211,
11121112,
11122211,
11221122,
11222211,
3012102012212010,
02020211,
3012102012222010,
02020211,
3012102012212010,
02020211,
3012102012222010,
02020211,
1212
#SCROLL 1.25
1212,
#SCROLL 1.5
1212
#SCROLL 1.75
1212
#SCROLL 2
50000080,
#SCROLL 1
#BPMCHANGE 190
70
#BPMCHANGE 180
00
#BPMCHANGE 175
00
#BPMCHANGE 150
0
#BPMCHANGE 140
0,
#BARLINEOFF
#BPMCHANGE 130
0
#BPMCHANGE 110
0
#BPMCHANGE 90
0
#BPMCHANGE 70
0
#BPMCHANGE 200
80
#SCROLL 3
68,
#BARLINEON
#BPMCHANGE 225
#GOGOSTART
#SCROLL 1
3022102012221022,
1022102212221212,
1220102210201222,
1022102212221212,
0212102210221222,
1022102212201212,
1022102212201222,
100000100000100000100100100000100000101010101010,
1120201120201120,
1220201210201120,
1220201220201120,
2110211021112120,
1210101220201120,
2120202110202120,
1220201220201120,
100100200000100000100200100000200000202020202020,
#GOGOEND
1110201110201110,
1210201210201210,
1110201110201120,
100100200000100000200200100200200000202020202020,
1110201110201220,
1022201022201220,
200020001000200020001000200200100000200200100000,
100100200000100200200000100100200200102020202020,
1000221120102120,
1120102021120120,
100000100100200000100000200100200000202020200000,
#SCROLL 1.5
#GOGOSTART
303060806080
#SCROLL 3
6008,
#GOGOEND
#SCROLL 1
1011201022112011,
202010100000202010100000200200100000200100100000,
202020200000202020200000200200100000200100200000,
1210212021121120,
#SCROLL 0.75
10101011,
01101011,
10101110,
10111011,
11111011,
10101011,
10111111,
3330,
#SCROLL 1
1111,
1100,
#BPMCHANGE 450
#MEASURE 8/4
#SCROLL 0.5
11111111,
11110000,
#BPMCHANGE 900
#MEASURE 16/4
#SCROLL 0.25
1111111111111111,
1111111111111111,
#SCROLL 1
6,
#BPMCHANGE 225
#MEASURE 4/4
800
#SCROLL 3
4,
#GOGOSTART
#SCROLL 1
3022102012221022,
1022102212221212,
1220102210201222,
1022102212221212,
0212102210221222,
1022102212201212,
1022102212201222,
100000100000100000100100100000100000101010101010,
1120201120201120,
1220201210201120,
1220201220201120,
2110211021112120,
1210101220201120,
2120202110202120,
1220201220201120,
#GOGOEND
#BPMCHANGE 250
100100200000100000100200
#BPMCHANGE 275
100000200000202020202020,
#BPMCHANGE 300
#GOGOSTART
12121212,
12121211,
12121212,
12121211,
21121212,
1020102010111010,
12121212,
11111111,
12121212,
12121211,
1020102010201111,
12121211,
21121212,
12121211,
12121212,
1010101011101110,
3600,
0008,
44,
3,
0000000022201110,
#GOGOEND
#BPMCHANGE 75
#SCROLL 4
3,
,
,
#END

COURSE:Hard
LEVEL:8
BALLOON:25
SCOREINIT:1130
SCOREDIFF:0
#START
11101111,
02020202,
11101111,
02020202,
11101111,
02020202,
11101111,
02020202,
12121210,
12101210,
12121210,
12101210,
12121210,
12101210,
12121210,
12101210,
11101110,
11102220,
11101110,
11102220,
11101110,
11102220,
11101110,
11102220,
3011101011101110,
,
3011101011101110,
,
3011101011101110,
,
3011101011101110,
,
12101210,
1110111050000080,
#BARLINEOFF
#BPMCHANGE 190
70
#BPMCHANGE 180
00
#BPMCHANGE 175
00
#BPMCHANGE 150
0
#BPMCHANGE 140
0,
#BPMCHANGE 130
0
#BPMCHANGE 110
0
#BPMCHANGE 90
0
#BPMCHANGE 70
0
#BPMCHANGE 200
80
#SCROLL 0.889
68,
#BARLINEON
#BPMCHANGE 225
#GOGOSTART
#SCROLL 1
32121212,
12121211,
12121212,
12121211,
01121212,
12121211,
12121212,
1010101110101111,
12121212,
12121211,
12121212,
12121211,
01121212,
12121211,
12121212,
1010101110101111,
#GOGOEND
10210211,
10210212,
10210211,
1020001020201111,
10210212,
10210212,
101010101010200200200000,
1110111011101111,
10212120,
1020102020020020,
1110201110201110,
#GOGOSTART
33
#SCROLL 1.5
686868,
#GOGOEND
#SCROLL 1
1010100011101000,
1110111010101000,
2220222020202000,
1110111020020020,
10101011,
01101011,
10101110,
10111011,
11111011,
10101011,
10111111,
3330,
5,
0800,
#BPMCHANGE 450
#MEASURE 8/4
5,
00080000,
#BPMCHANGE 900
#MEASURE 16/4
6,
,
,
#BPMCHANGE 225
#MEASURE 4/4
8004,
#GOGOSTART
#SCROLL 1
32121212,
12121211,
12121212,
12121211,
01121212,
12121211,
12121212,
1010101110101111,
12121212,
12121211,
12121212,
12121211,
01121212,
12121211,
12121212,
#GOGOEND
#BPMCHANGE 250
10101011
#BPMCHANGE 275
10101111,
#BPMCHANGE 300
#GOGOSTART
1111,
10101011,
1111,
10101011,
01101010,
10101011,
1111,
11111111,
1111,
10101011,
1111,
10101011,
01101010,
10101011,
1111,
11111111,
3600,
0008,
44,
3,
0000000000001111,
#GOGOEND
#BPMCHANGE 75
#SCROLL 4
1,
,
,
#END

COURSE:Normal
LEVEL:7
BALLOON:22,2
SCOREINIT:1750
SCOREDIFF:0
#START
1111,
02020202,
1111,
02020202,
1111,
02020202,
1111,
02020202,
10101110,
10001110,
20202220,
20002220,
10101110,
10001110,
20202220,
20002220,
11101010,
11102020,
11101010,
11102020,
11101010,
11102020,
11101010,
11102020,
31101111,
,
31101111,
,
31101111,
,
31101111,
,
1111,
11115008,
#BARLINEOFF
#BPMCHANGE 190
70
#BPMCHANGE 180
00
#BPMCHANGE 175
00
#BPMCHANGE 150
0
#BPMCHANGE 140
0,
#BPMCHANGE 130
0
#BPMCHANGE 110
0
#BPMCHANGE 90
0
#BPMCHANGE 70
0
#BPMCHANGE 200
80
#SCROLL 1.125
68,
#BARLINEON
#BPMCHANGE 225
#GOGOSTART
#SCROLL 1
3111,
10101011,
1111,
10101011,
01101010,
10101011,
1111,
11101111,
1111,
10101011,
1111,
10101011,
01101010,
10101011,
1111,
11101111,
#GOGOEND
10210210,
10210210,
10210210,
11205008,
10210210,
10210210,
111111100000,
11105008,
10210120,
1000201020020020,
10210120,
#GOGOSTART
78
#SCROLL 1.5
686868,
#GOGOEND
#SCROLL 1
10101011,
21201021,
21201011,
1000100020020020,
10010011,
10010011,
20020022,
20020022,
10010011,
10010011,
20020022,
3330,
5,
0800,
#BPMCHANGE 450
#MEASURE 8/4
5,
00080000,
#BPMCHANGE 900
#MEASURE 16/4
6,
,
,
#BPMCHANGE 225
#MEASURE 4/4
8004,
#GOGOSTART
#SCROLL 1
3111,
10101011,
1111,
10101011,
01101010,
10101011,
1111,
11101111,
1111,
10101011,
1111,
10101011,
01101010,
10101011,
1111,
#GOGOEND
#BPMCHANGE 250
1110
#BPMCHANGE 275
1111,
#BPMCHANGE 300
#GOGOSTART
1111,
10101011,
1111,
10101011,
01101010,
10101011,
1111,
5008,
1111,
10101011,
1111,
10101011,
01101010,
10101011,
1111,
5,
8600,
0008,
33,
3,
00000058,
#GOGOEND
#BPMCHANGE 75
#SCROLL 4
3,
,
,
#END

COURSE:Easy
LEVEL:5
BALLOON:20
SCOREINIT:2050
SCOREDIFF:0
#START
1111,
,
1111,
,
1111,
,
1111,
,
1111,
11,
2222,
22,
1111,
11,
2222,
22,
11,
1110,
11,
2220,
11,
1110,
11,
2220,
30101011,
,
30101011,
,
30101011,
,
30101011,
,
1111,
1158,
#BARLINEOFF
#BPMCHANGE 190
70
#BPMCHANGE 180
00
#BPMCHANGE 175
00
#BPMCHANGE 150
0
#BPMCHANGE 140
0,
#BPMCHANGE 130
0
#BPMCHANGE 110
0
#BPMCHANGE 90
0
#BPMCHANGE 70
0
#BPMCHANGE 200
80
#SCROLL 1.125
68,
#BARLINEON
#BPMCHANGE 225
#GOGOSTART
#SCROLL 1
1111,
1111,
1111,
1111,
0111,
1111,
1111,
10101110,
1111,
1111,
1111,
1111,
0111,
1111,
1111,
10101110,
#GOGOEND
10010010,
10010010,
20020020,
11105080,
10010010,
10010010,
58,
11105080,
10010020,
1000000020020020,
10010020,
#GOGOSTART
68686868,
#GOGOEND
#SCROLL 1
10101011,
10101011,
10101011,
1000000020020020,
10010000,
10010000,
20020000,
20020000,
10010000,
10010000,
20020000,
3330,
5,
0800,
#BPMCHANGE 450
#MEASURE 8/4
5,
00080000,
#BPMCHANGE 900
#MEASURE 16/4
6,
,
,
#BPMCHANGE 225
#MEASURE 4/4
8004,
#GOGOSTART
#SCROLL 1
1111,
1111,
1111,
1111,
0111,
1111,
1111,
10101110,
1111,
1111,
1111,
1111,
0111,
1111,
1111,
#GOGOEND
#BPMCHANGE 250
1010
#BPMCHANGE 275
1110,
#BPMCHANGE 300
#GOGOSTART
3333,
3333,
3333,
3333,
3333,
3333,
3333,
5008,
04040404,
04040404,
04040404,
04040404,
04040404,
04040404,
04040404,
5,
8600,
0008,
33,
3,
,
#GOGOEND
#BPMCHANGE 75
#SCROLL 4
3,
,
,
#END
