TITLE:BassBoL
SUBTITLE:--InterChan
BPM:210
WAVE:BassBoL.ogg
OFFSET:-0
DEMOSTART:176
SCOREMODE:2
PREIMAGE:BassBol.png
MAKER:bol

COURSE:Oni
LEVEL:10.9
BALLOON:5,75,75,10,1
SCOREINIT:510
SCOREDIFF:0
#START
#BARLINEOFF
#SCROLL 0.6
1,
0100,
1,
,
1,
0100,
1,
,
#SCROLL 0.75
11,
0101,
11,
0101,
12,
0121,
12,
0121,
10012010,
01002001,
10012011,
#SCROLL 0.9
#BARLINEON
01102101,
11012011,
222200100000200000100000,
#SCROLL 1
1000001120001020,
1022110022102222,
#SCROLL 0.7
1
#SCROLL 0.72
2
#SCROLL 0.74
2
#SCROLL 0.76
2,
#SCROLL 0.78
2
#SCROLL 0.8
2
#SCROLL 0.82
2
#SCROLL 0.84
2,
#SCROLL 0.86
2
#SCROLL 0.88
2
#SCROLL 0.90
2
#SCROLL 0.92
2,
#SCROLL 0.94
2
#SCROLL 0.96
2
#SCROLL 0.98
2
#SCROLL 1
2,
2010221120102111,
2010221120102111,
2121212121212121,
100200200200200200200200202020202020202020202020,
700008
#SCROLL 3
40,
#SCROLL 1
100000101010200000200100100000200000100000200000,
1011202110212020,
1011202110201020,
1011202211112210,
100000101010200000200100100000200000100000200000,
1011202110212020,
1021102210221022,
#SCROLL 1.05
10
#SCROLL 1.1
10
#SCROLL 1.15
10
#SCROLL 1.2
1
#SCROLL 1.175
1
#SCROLL 1.15
20
#SCROLL 1.1
2
#SCROLL 1.075
2
#SCROLL 1.05
10
#SCROLL 1
20,
#BPMCHANGE 420
#MEASURE 8/4
#SCROLL 0.5
100000101020100000200200100000200000100000200000,
101210121020
#SCROLL 0.375
1010,
#SCROLL 0.5
1012102210201020,
101122102212
#SCROLL 0.25
3000,
#SCROLL 0.5
1012102210201012,
1012101210202012,
1011221030122210,
2211221112122212,
#BPMCHANGE 210
#MEASURE 4/4
#SCROLL 1
10
#SCROLL 0.75
22,
11211211,
11211211,
11211211,
21121121,
11211211,
11211211,
11211211,
21121121,
11211211,
11211211,
11211211,
2010102011102011,
2011201021102210,
2011201021102110,
2021202021202120,
2211112211112211,
#SCROLL 2
#BARLINEOFF
#MEASURE 1/4000
3,
#SCROLL 1
#MEASURE 499/4000
#BARLINEON
,
#MEASURE 1/8
,
,
,
,
,
,
,
,
,
#SCROLL 2
#BARLINEOFF
#MEASURE 1/4000
3,
#SCROLL 1
#MEASURE 499/4000
#BARLINEON
,
#MEASURE 1/8
,
,
,
,
,
#SCROLL 2
#BARLINEOFF
#MEASURE 1/4000
3,
#SCROLL 1
#MEASURE 499/4000
#BARLINEON
,
#MEASURE 1/8
,
,
,
,
,
,
,
,
,
,
,
,
,
,
,
#SCROLL 2
#BARLINEOFF
#MEASURE 1/4000
3,
#SCROLL 1
#MEASURE 499/4000
#BARLINEON
,
#MEASURE 1/8
,
,
,
,
,
,
,
,
,
#SCROLL 2
#BARLINEOFF
#MEASURE 1/4000
3,
#SCROLL 1
#MEASURE 499/4000
#BARLINEON
,
#MEASURE 1/8
,
,
,
,
,
#SCROLL 2
#BARLINEOFF
#MEASURE 1/4000
3,
#SCROLL 1
#MEASURE 499/4000
#BARLINEON
,
#MEASURE 1/8
,
,
,
,
,
,
,
,
11,
20,
1,
22,
1,
22,
1,
#MEASURE 4/4
3232,
3232,
32223222,
32223222,
2011201020112010,
2121202021212020,
201010201010201010201010200100200100200100200100,
1020202220203000,
#BPMCHANGE 105
#MEASURE 2/4
#SCROLL 1.5
#GOGOSTART
10001010200010002200220022002200,
1011201022201110,
100000100100200000100000202020200000101010100000,
1212122212221222,
10001010200010002200220022000000,
1011201022201110,
100000100100200000100000202020101010200200200000,
1012102210121022,
#BPMCHANGE 210
#MEASURE 4/4
#SCROLL 1
1011201110112012,
1011201210212022,
1011201110112012,
1021102011211022,
2011201021102011,
2011201121102011,
2021212020212120,
2211221212112000,
#GOGOEND
1011202012112020,
#GOGOSTART
3011201220112212,
1020201120201021,
2010201120404040,
3011201020101122,
1011201220112212,
1020201120201021,
2010201121121120,
#GOGOEND
7,
#BARLINEOFF
,
,
0008,
7,
,
,
#BPMCHANGE 105
#MEASURE 2/4
0000000000008011,
1121,
0121,
0121,
0121,
0121,
0121,
0121,
0121,
#BARLINEON
#SCROLL 0.75
#BPMCHANGE 210
#MEASURE 4/4
2000201120002020,
2000202022202020,
2000201120202022,
2020201122202020,
200200200200200200200222,
200000200000200000200000200200200000202020200000,
200200200200200200200222,
200200200200222200222200,
2011201020112110,
2011201020112110,
2110211021102110,
211111200200200200200200,
200200200000200200200000202020200000200200200000,
222200222200222200222200,
220110220110220110220110,
202000202000202000202000200200100000200200100000,
1000
#SCROLL 1
401110112012,
1012202211221212,
1011201211201120,
1110201221202012,
1011201110112012,
1022101211221222,
1211201220221122,
1220120210102020,
#BPMCHANGE 105
#MEASURE 2/4
#SCROLL 1.5
1011101020001120,
1210121020112121,
0101101020001120,
0110201120222020,
#BPMCHANGE 210
#MEASURE 4/4
#SCROLL 1
1011202210112022,
1011202210112022,
1010202010212120,
1122112212121000,
#GOGOSTART
3011201210112012,
1011201210112210,
1110201212102011,
1110222011102210,
1011201210112012,
1011201210112220,
1110211022102210,
1110002210102000,
70008120,
1011201210112210,
1011201000112010,
0011201210112000,
300300122222100300122222,
100300112222100300112222,
12323232,
32332300,
#GOGOEND
#SCROLL 2
78
#SCROLL 1
60000000000000,
0800,
#END

COURSE:Hard
LEVEL:8
BALLOON:
SCOREINIT:860
SCOREDIFF:0
#START
1,
0100,
1,
,
1,
0100,
1,
,
11,
0101,
11,
0101,
11,
0101,
11,
0101,
12,
0121,
12,
0121,
10012010,
01002001,
10012011,
01102101,
1222,
2222,
2222,
2222,
21212121,
21212121,
22222222,
2220222050000080,
1004,
12121110,
11112220,
12121110,
11102220,
12121110,
11112220,
12121110,
11112210,
#BPMCHANGE 420
#MEASURE 8/4
#SCROLL 0.5
1011101110101000,
1011101110001010,
1011101110101000,
1011101110103000,
3011101010101000,
3011101010101000,
3011100030111000,
1110111010101110,
#BPMCHANGE 210
#MEASURE 4/4
#SCROLL 1
1022,
10201201,
10201201,
10201201,
20120120,
10201201,
10201201,
10201201,
20120120,
10201201,
10201201,
10201201,
2000102000102011,
1222,
2222,
22222222,
2220222022202220,
3,
0300,
3,
,
3,
0300,
3,
,
33,
33,
3232,
3232,
21202120,
2220202022202020,
2220222011102220,
1000222020201000,
#BPMCHANGE 105
#MEASURE 2/4
#SCROLL 2
#GOGOSTART
11214444,
1011201020001000,
11215858,
1110111010001000,
11214440,
1011201020001000,
11215008,
1011102220202020,
#BPMCHANGE 210
#MEASURE 4/4
#SCROLL 1
3011201110102000,
1011201110102000,
1011201110102000,
12111220,
41212120,
21212120,
22222222,
2220222010104000,
#GOGOEND
1011201020202020,
#GOGOSTART
3011201110102000,
1011201110102000,
20214444,
3011201010102000,
1011201110102000,
1010201110102011,
2010201020020020,
#GOGOEND
3,
#BARLINEOFF
,
,
,
1,
,
,
#BPMCHANGE 105
#MEASURE 2/4
#SCROLL 2
0000000000000011,
1121,
0121,
0121,
0121,
0121,
0121,
0121,
0121,
#BARLINEON
#SCROLL 1
#BPMCHANGE 210
#MEASURE 4/4
22,
22,
22,
22,
2222,
2222,
2222,
2222,
21212121,
21212121,
21212121,
21222222,
2220222022202220,
2220222022202220,
43434343,
4040404022202220,
11411212,
12121212,
12121212,
12121210,
1011101010201020,
12121212,
12121212,
1010200110102020,
#BPMCHANGE 105
#MEASURE 2/4
#SCROLL 2
1011101020001000,
01012010,
01012010,
01012020,
#BPMCHANGE 210
#MEASURE 4/4
#SCROLL 1
1011201010112010,
1011201010112010,
11221222,
1110111010101000,
#GOGOSTART
3000201110002011,
1000201110102220,
0010201110102011,
1000222010101000,
1000201110002011,
1000201110102220,
0010201110102011,
11012120,
50080120,
1000201110102020,
1010201110102011,
1000222010102000,
33683368,
44683368,
1344,
40430300,
#GOGOEND
06000000,
0800,
#END

COURSE:Normal
LEVEL:7
BALLOON:
SCOREINIT:1290
SCOREDIFF:0
#START
1,
0100,
1,
,
1,
0100,
1,
,
11,
0101,
11,
0101,
11,
0101,
11,
0101,
10010010,
01001001,
10010010,
01001001,
10010010,
01001001,
10010010,
01001001,
1222,
2222,
2222,
2222,
22202220,
22202220,
5008,
22205080,
1004,
10101110,
11101110,
10101110,
11102220,
10101110,
11101110,
10101110,
11102220,
#BPMCHANGE 420
#MEASURE 8/4
#SCROLL 0.5
11111010,
11101010,
11111010,
11101030,
31101010,
31101010,
31103110,
11111110,
#BPMCHANGE 210
#MEASURE 4/4
#SCROLL 1
1,
10200200,
10200200,
10200200,
20020020,
10200200,
10200200,
10200200,
20020020,
10200200,
10200200,
10200200,
20020020,
1222,
2222,
22202220,
5008,
3,
0300,
3,
,
3,
0300,
3,
,
33,
33,
33,
33,
2222,
2222,
22202220,
5008,
#BPMCHANGE 105
#MEASURE 2/4
#SCROLL 2
#GOGOSTART
10014444,
10012010,
10015858,
11111010,
10014440,
10012010,
10015008,
10102222,
#BPMCHANGE 210
#MEASURE 4/4
#SCROLL 1
30201120,
10210120,
10201120,
11102220,
4222,
2222,
22202220,
50000840,
#GOGOEND
10202222,
#GOGOSTART
31210120,
10210120,
10104444,
30210120,
11210120,
10210120,
2020200020020020,
#GOGOEND
3,
#BARLINEOFF
,
,
,
,
,
,
#BPMCHANGE 105
#MEASURE 2/4
#SCROLL 2
,
1121,
0121,
0121,
0121,
0121,
0121,
0121,
0121,
#BARLINEON
#SCROLL 1
#BPMCHANGE 210
#MEASURE 4/4
22,
22,
22,
22,
2222,
2222,
2222,
2222,
21202120,
21202120,
21202120,
21202220,
22202220,
22202220,
58005800580058005800580058005800,
44446080,
10401120,
11201120,
10210120,
10210120,
11101120,
11201120,
10210120,
1010200100102000,
#BPMCHANGE 105
#MEASURE 2/4
#SCROLL 2
10012010,
01012010,
01012010,
01012020,
#BPMCHANGE 210
#MEASURE 4/4
#SCROLL 1
1212,
11201120,
22202220,
50081110,
#GOGOSTART
30211021,
10211021,
01201121,
01211210,
10211021,
10211021,
01201121,
11012020,
50080120,
10210122,
10210120,
01210120,
33003300,
44004400,
1333,
30330300,
#GOGOEND
06000000,
0800,
#END

COURSE:Easy
LEVEL:5
BALLOON:
SCOREINIT:2100
SCOREDIFF:0
#START
5,
08500008,
5,
00000008,
5,
08500008,
5,
00000008,
11,
0101,
11,
0101,
11,
0101,
11,
0101,
12,
01002000,
12,
01002000,
12,
01002000,
12,
01002000,
12,
22,
22,
22,
2222,
2222,
5,
85,
8004,
1110,
1120,
1110,
1122,
1110,
1120,
1110,
1122,
#BPMCHANGE 420
#MEASURE 8/4
#SCROLL 0.5
1111,
1111,
1111,
1113,
3110,
3110,
33,
3333,
#BPMCHANGE 210
#MEASURE 4/4
#SCROLL 1
1,
00200200,
00200200,
00200200,
20020020,
00200200,
00200200,
00200200,
20020020,
00200200,
00200200,
00200200,
20020020,
1220,
2220,
2222,
5008,
3,
0300,
3,
,
3,
0300,
3,
,
11,
11,
11,
11,
22,
22,
2222,
5008,
#BPMCHANGE 105
#MEASURE 2/4
#SCROLL 2
#GOGOSTART
12,
1022,
10005858,
1110,
12,
1022,
10005008,
1122,
#BPMCHANGE 210
#MEASURE 4/4
#SCROLL 1
3212,
1212,
1212,
1120,
4220,
2220,
2222,
5084,
#GOGOEND
3,
#GOGOSTART
3212,
1212,
10005008,
3212,
1212,
1212,
5008,
#GOGOEND
3,
#BARLINEOFF
,
,
,
,
,
,
#BPMCHANGE 105
#MEASURE 2/4
#SCROLL 2
,
12,
02,
02,
02,
02,
02,
02,
02,
#BARLINEON
#SCROLL 1
#BPMCHANGE 210
#MEASURE 4/4
22,
22,
22,
22,
2220,
2220,
2220,
2220,
2222,
2222,
2222,
2222,
4242,
4242,
4444,
6008,
1412,
1212,
1212,
1210,
1212,
1212,
1212,
1202,
#BPMCHANGE 105
#MEASURE 2/4
#SCROLL 2
12,
02,
02,
02,
#BPMCHANGE 210
#MEASURE 4/4
#SCROLL 1
1212,
1212,
2222,
5008,
#GOGOSTART
3212,
1110,
1212,
2220,
3212,
1110,
1212,
1022,
1002,
1212,
1212,
1212,
33,
44,
1111,
20020200,
#GOGOEND
06000000,
0800,
#END
