TITLE:White Heart
SUBTITLE:--9C feat. Cusi
BPM:95
WAVE:White Heart.ogg
PREIMAGE:White-Heart_Jacket-ARt.png
OFFSET:-0.01
DEMOSTART:61.654
SCOREMODE:2
MAKER:bol

COURSE:Oni
LEVEL:9
BALLOON:10,120,30
SCOREINIT:1060
SCOREDIFF:0
#START
20112011,
20112011,
20022212,
10000011,
20112011,
20112011,
2000002210001122,
10000211,
20112011,
20112011,
20022212,
10000011,
20112011,
20220012,
1221122112211221,
122112211221122
#SCROLL 2
3,
#SCROLL 1
,
#SCROLL 1.25
1002102210021022,
1002102210021122,
1002102210021022,
1002102211221220,
1010200110102001,
1010200110102001,
1010200111102001,
111020110
#SCROLL 0.75
7000080,
#SCROLL 1
#GOGOSTART
1010200110102001,
1010201112102001,
1010200110102001,
1010201212102012,
1221122112211221,
1221122112211221,
1221122112211221,
1221122112212212,
#SCROLL 1.25
10222020102220201022202010222020,
10212020102120201021202010212020,
10222020102220101022202010222010,
10212020102120101021202010201020,
#GOGOEND
#SCROLL 1
9,
#BARLINEOFF
,
,
0008,
#BARLINEON
#BPMCHANGE 190
1110201110201120,
#MEASURE 3/4
111020111020,
#BPMCHANGE 23.75
#MEASURE 1/32
#SCROLL 4
,
#GOGOSTART
#SCROLL 1
#BARLINEOFF
#BPMCHANGE 190
#MEASURE 4/4
1010201000212120,
1210000010000010,
1011111222210002,
2222210020202020,
110110110110110011001100,
200120012001200120012001,
1110201000201110,
1110201000211110,
1010201000212120,
1012221012221010,
1011111222210002,
2222210020202020,
110110110110110011001100,
200120012001200120012001,
1110201000201110,
1110201000201110,
#BARLINEON
110110110110110011001200,
120012001200120012001200,
1110201110212120,
2210000010000010,
2222221002022222,
2100202222221002,
1110201110201000,
1110201000201110,
100120012001200120012001,
200000002000001000000000000200000100000200200200,
200200200100100000100000100000100000001000000000,
100000100000200000200000200100100101010100100100,
2011100111101110,
100100100000100000100000202000002020000020200000,
200010002000100020100000000000100000101000001010,
0030002120102117,
#GOGOEND
#MEASURE 1/24
#SCROLL 1.1
,
#SCROLL 0.8
,
#SCROLL 0.7
,
#SCROLL 1.1
,
#SCROLL 1.4
,
#SCROLL 1.6
,
#SCROLL 1.1
,
#SCROLL 1.8
,
#SCROLL 2.4
,
#SCROLL 1.7
,
#SCROLL 2.8
,
#SCROLL 2.1
,
#SCROLL 2
,
#SCROLL 1.5
,
#SCROLL 4.6
,
#SCROLL 7.2
,
#SCROLL 1.3
,
#SCROLL 2.1
,
#SCROLL 2.4
,
#SCROLL 2.2
,
#SCROLL 3.8
,
#SCROLL 4.7
,
#SCROLL 5.6
,
#SCROLL 6.4
,
#SCROLL 4.6
,
#SCROLL 5.1
,
#SCROLL 7.8
,
#SCROLL 9.6
,
#SCROLL 5.6
,
#SCROLL 4.2
,
#SCROLL 1
,
#SCROLL 2.5
,
#SCROLL 6.6
,
#SCROLL 7.8
,
#SCROLL 5.2
,
#SCROLL 2.1
,
#SCROLL 6.1
,
#SCROLL 5.4
,
#SCROLL 4.8
,
#SCROLL 4.2
,
#SCROLL 3.8
,
#SCROLL 1.8
,
#SCROLL 2.8
,
#SCROLL 5.2
,
#SCROLL 6.8
,
#SCROLL 6
,
#SCROLL 5
,
#SCROLL 8
8,
#SCROLL 2
,
#END

COURSE:Hard
LEVEL:8
BALLOON:8,80,20
SCOREINIT:2070
SCOREDIFF:0
#START
#SCROLL 1.5
20112011,
20112011,
20022212,
10000011,
20112011,
20112011,
2000001110002222,
10000111,
20112011,
20112011,
20022212,
10000011,
20112011,
20220011,
2220222022202220,
2220222022202222,
#SCROLL 1
,
#SCROLL 1.5
1000101110001011,
1000101110001011,
1000101110001011,
1000101110001000,
1010200110102001,
1010200110102001,
1010200110102001,
101020010
#SCROLL 1
7000080,
#SCROLL 1.5
#GOGOSTART
1010200110102001,
1010200110102000,
1010200110102001,
1010200110102000,
1110201110102010,
1110201110102010,
1110201110102010,
1110201110102010,
1110201110102010,
1110201110102010,
1110201110102010,
1110201110102010,
#GOGOEND
#SCROLL 1
9,
#BARLINEOFF
,
,
0008,
#BARLINEON
#BPMCHANGE 190
30230230,
#MEASURE 3/4
302302,
#BPMCHANGE 23.75
#MEASURE 1/32
#SCROLL 4
,
#GOGOSTART
#SCROLL 1
#BARLINEOFF
#BPMCHANGE 190
#MEASURE 4/4
11210222,
11001001,
1011100222010002,
2202010020202020,
100100100100100010001000,
222222,
10210210,
10210210,
11210222,
10201211,
1011100222010002,
2202010020202020,
100100100100100010001000,
222222,
10210210,
10210210,
#BARLINEON
100100100100100001000200,
020002000200020002000200,
10210222,
21001001,
2220201002022202,
0100202220201002,
10210210,
10210210,
122222,
200000002000001000000000000200000100000200200200,
000200000100100000100000100000100000001000000000,
1010202021011101,
2010100101001010,
100100100000100000100000200000002000000020000000,
200000002000000020000000000000100000100000001000,
0030002020102007,
#GOGOEND
#MEASURE 1/24
#SCROLL 1.2
,
#SCROLL 2.2
,
#SCROLL 1
,
#SCROLL 2.2
,
#SCROLL 3.2
,
#SCROLL 1.4
,
#SCROLL 1.8
,
#SCROLL 1.1
,
#SCROLL 1.7
,
#SCROLL 2.4
,
#SCROLL 2.8
,
#SCROLL 2
,
#SCROLL 2.1
,
#SCROLL 4.6
,
#SCROLL 1.5
,
#SCROLL 1
,
#SCROLL 5.3
,
#SCROLL 4.4
,
#SCROLL 1.2
,
#SCROLL 2.4
,
#SCROLL 3.8
,
#SCROLL 2.8
,
#SCROLL 1.5
,
#SCROLL 2.3
,
#SCROLL 2.4
,
#SCROLL 3.2
,
#SCROLL 4.8
,
#SCROLL 3.6
,
#SCROLL 2.1
,
#SCROLL 2.8
,
#SCROLL 1.5
,
#SCROLL 1
,
#SCROLL 3.6
,
#SCROLL 6.6
,
#SCROLL 4.6
,
#SCROLL 2.2
,
#SCROLL 3.2
,
#SCROLL 2.6
,
#SCROLL 2.1
,
#SCROLL 2.5
,
#SCROLL 1.8
,
#SCROLL 0.8
,
#SCROLL 2.4
,
#SCROLL 1.4
,
#SCROLL 3.2
,
#SCROLL 2.5
,
#SCROLL 2.9
,
#SCROLL 4.2
8,
#SCROLL 1
,
#END

COURSE:Normal
LEVEL:7
BALLOON:7,70,15
SCOREINIT:1640
SCOREDIFF:0
#START
#SCROLL 1.5
10110011,
10110011,
10022022,
20000011,
10110011,
10110011,
10011022,
20000110,
10110011,
10110011,
10022022,
20000011,
10110011,
10220011,
20222022,
20222022,
#SCROLL 1
,
#SCROLL 1.5
10111011,
10111011,
10111011,
10111010,
11201120,
11201120,
11201120,
101020010
#SCROLL 1
7000080,
#SCROLL 1.5
#GOGOSTART
11201120,
11201120,
11201120,
11201120,
11211121,
11211121,
11211121,
11211121,
11211121,
11211121,
11211121,
11211121,
#GOGOEND
#SCROLL 1
9,
#BARLINEOFF
,
,
0008,
#BARLINEON
#BPMCHANGE 190
10210210,
#MEASURE 3/4
102102,
#BPMCHANGE 23.75
#MEASURE 1/32
#SCROLL 4
,
#GOGOSTART
#SCROLL 1
#BARLINEOFF
#BPMCHANGE 190
#MEASURE 4/4
10210220,
11001001,
1010100202010002,
0202010020202000,
100100100000100010000000,
220220,
10210210,
10210210,
10210220,
10210210,
1010100202010002,
0202010020202000,
100100100000100010000000,
220220,
10210210,
10210210,
#BARLINEON
100100100000100001000200,
020000000200020000000200,
10210222,
01001001,
2020201002020202,
0100202020201000,
10210210,
10210210,
120220,
200000002000001000000000000200000100000200000200,
000200000000100000100000100000100000001000000000,
1010202020010100,
2010100101001010,
100000100000100000000000200000002000000000000000,
200000002000000000000000000000100000100000001000,
0030002020201007,
#GOGOEND
#MEASURE 1/24
#SCROLL 1.05
,
#SCROLL 1.1
,
#SCROLL 1.15
,
#SCROLL 1.2
,
#SCROLL 1.25
,
#SCROLL 1.3
,
#SCROLL 1.35
,
#SCROLL 1.4
,
#SCROLL 1.45
,
#SCROLL 1.5
,
#SCROLL 1.55
,
#SCROLL 1.6
,
#SCROLL 1.65
,
#SCROLL 1.7
,
#SCROLL 1.75
,
#SCROLL 1.8
,
#SCROLL 1.85
,
#SCROLL 1.9
,
#SCROLL 1.95
,
#SCROLL 2
,
#SCROLL 2.05
,
#SCROLL 2.1
,
#SCROLL 2.15
,
#SCROLL 2.2
,
#SCROLL 2.25
,
#SCROLL 2.3
,
#SCROLL 2.35
,
#SCROLL 2.4
,
#SCROLL 2.45
,
#SCROLL 2.5
,
#SCROLL 2.6
,
#SCROLL 2.7
,
#SCROLL 2.8
,
#SCROLL 2.9
,
#SCROLL 3
,
#SCROLL 3.2
,
#SCROLL 3.4
,
#SCROLL 3.6
,
#SCROLL 3.8
,
#SCROLL 4
,
#SCROLL 4.25
,
#SCROLL 4.5
,
#SCROLL 4.75
,
#SCROLL 5
,
#SCROLL 5.25
,
#SCROLL 5.5
,
#SCROLL 5.75
,
#SCROLL 6
8,
#SCROLL 8
,
#END

COURSE:Easy
LEVEL:2
BALLOON:50,10
SCOREINIT:4720
SCOREDIFF:0
#START
#SCROLL 1.5
22,
22,
22,
22,
22,
22,
22,
22,
22,
22,
22,
22,
22,
22,
2220,
2220,
#SCROLL 1
,
#SCROLL 1.5
1111,
1111,
1111,
1111,
1202,
1202,
1202,
1200,
#SCROLL 1.5
#GOGOSTART
3202,
1202,
1202,
1202,
1212,
1212,
1212,
1212,
1212,
1212,
1212,
1212,
#GOGOEND
#SCROLL 1
9,
#BARLINEOFF
,
,
0008,
#BARLINEON
#BPMCHANGE 190
#SCROLL 0.98
10200200,
#MEASURE 3/4
102002,
#BPMCHANGE 23.75
#MEASURE 1/32
#SCROLL 4
,
#GOGOSTART
#SCROLL 0.98
#BARLINEOFF
#BPMCHANGE 190
#MEASURE 4/4
1,
11,
2,
22,
1,
11,
2,
22,
1,
11,
2,
22,
1,
11,
2,
22,
#BARLINEON
1011,
2022,
1011,
2022,
1002,
2212,
1,
0211,
1011,
2022,
1011,
2022,
10000011,
10001111,
1,
0000200010001007,
#GOGOEND
#MEASURE 1/24
#SCROLL 1.96
,
#SCROLL 1.94
,
#SCROLL 1.92
,
#SCROLL 1.9
,
#SCROLL 1.88
,
#SCROLL 1.86
,
#SCROLL 1.84
,
#SCROLL 1.82
,
#SCROLL 1.8
,
#SCROLL 1.78
,
#SCROLL 1.76
,
#SCROLL 1.74
,
#SCROLL 1.72
,
#SCROLL 1.7
,
#SCROLL 1.68
,
#SCROLL 1.66
,
#SCROLL 1.64
,
#SCROLL 1.62
,
#SCROLL 1.6
,
#SCROLL 1.58
,
#SCROLL 1.56
,
#SCROLL 1.54
,
#SCROLL 1.52
,
#SCROLL 1.5
,
#SCROLL 1.48
,
#SCROLL 1.46
,
#SCROLL 1.44
,
#SCROLL 1.42
,
#SCROLL 1.4
,
#SCROLL 1.38
,
#SCROLL 1.36
,
#SCROLL 1.34
,
#SCROLL 1.32
,
#SCROLL 1.3
,
#SCROLL 1.28
,
#SCROLL 1.26
,
#SCROLL 1.24
,
#SCROLL 1.22
,
#SCROLL 1.2
,
#SCROLL 1.18
,
#SCROLL 1.16
,
#SCROLL 1.14
,
#SCROLL 1.12
,
#SCROLL 1.1
,
#SCROLL 1.08
,
#SCROLL 1.06
,
#SCROLL 1.04
,
#SCROLL 1.02
8,
#SCROLL 1
,
#END
