TITLE:Halcyon
SUBTITLE:--Akako Hinami
BPM:200
WAVE:Halcyon.ogg
OFFSET:-1.217
DEMOSTART:48.017
SCOREMODE:2
PREIMAGE:Halcyon.png
MAKER:bol

COURSE:Oni
LEVEL:10.7
BALLOON:30,10,2,3
SCOREINIT:710
SCOREDIFF:0
#START
3,
,
,
#SCROLL 1.5
100000100000200000100200200200100101010200202020,
#SCROLL 1
1011201110112011,
2011112011112110,
1011201110112011,
1021102110212011,
1011201110112011,
2011112011112110,
2011122011222011,
1010201212102212,
1011201110112011,
2011112011112110,
1011201110112011,
1021012011212011,
1011201110112011,
2011112011112110,
2010112010112010,
1011201122101020,
3,
,
100000100000200000100200100200100000202020202020,
#SCROLL 1.5
33034033,
0440
#SCROLL 1
2212,
#SCROLL 1.5
33034033,
0440
#SCROLL 1
1221,
#SCROLL 1.5
33034033,
0440
#SCROLL 1
2212,
#SCROLL 1.5
33034033,
0440
#SCROLL 1
1221,
1011101110111011,
2022202220221012,
1012102220112021,
2011201220102222,
11212121,
#SCROLL 1.25
2010201020102222,
#SCROLL 1.5
1011201022102222,
#SCROLL 0.75
100000100000200000100200200200100101010200202020,
#SCROLL 1
#GOGOSTART
1111201210221020,
1221201210211020,
1212201220121020,
1121201120112210,
1111201210221020,
1221201210211020,
2212102210211020,
1121102110212022,
1111201210221020,
1221201210211020,
1212201220121020,
1101201111012011,
1111201210221020,
1221201210211020,
2212102211211020,
1212121211111012,
#GOGOEND
#SCROLL 2
#MEASURE 12/4
3,
#SCROLL 0.5
#MEASURE 4/4
10000122,
#BARLINEOFF
1022,
10020000,
01,
10000122,
1022,
20010000,
01,
#BARLINEON
#SCROLL 0.75
11012111,
01112111,
11012111,
0010101020102222,
11012111,
01112111,
7,
#BARLINEOFF
0008,
#SCROLL 1.33
#BARLINEON
211211211211211211211211,
7008,
#SCROLL 1.5
33034033,
00404000
#SCROLL 1
22201120,
#SCROLL 1.5
33034033,
0440
#SCROLL 1
3368,
#SCROLL 1.5
33034033,
00404000
#SCROLL 1
22201120,
#SCROLL 1.5
33034033,
00404000
#SCROLL 1
10222010,
1012101210121011,
2021202120221012,
1012102220112021,
2011201220102222,
11212121,
#SCROLL 1.25
2010201020102222,
#SCROLL 1.5
1011201110112222,
10
#SCROLL 0.75
787080,
#SCROLL 1.5
100000100000202020202020100000100100101010100000,
#SCROLL 1
#GOGOSTART
1121112111211121,
1121112111212211,
1121112111211121,
1121112122112211,
1121112111211121,
1121112111212211,
1121112111211121,
#GOGOEND
100000100000202020202020100000100100101010100000,
#GOGOSTART
1121112111211121,
1121112111212211,
1121112111211121,
1121112122112211,
1121112111211121,
1121112111212211,
1121112111211121,
2112112211212122,
#GOGOEND
#SCROLL 4
,
#GOGOSTART
6,
,
000000806868686860008000
#SCROLL 1
10101010,
#GOGOEND
,
#END

COURSE:Hard
LEVEL:8
BALLOON:20
SCOREINIT:1090
SCOREDIFF:0
#START
3,
,
,
#SCROLL 1.5
1010201110102220,
#SCROLL 1
1011100010111000,
2022202022202000,
1011100010111000,
14141440,
1011100010111000,
2022202022202000,
2011102011102000,
1010201110102220,
1011100010111000,
2022202022202000,
1011100010111000,
14141440,
1011100010111000,
2022202022202000,
2011102011102000,
12020202,
3,
,
1010201110102220,
33034033,
03302220,
33034033,
03301110,
33034033,
04402220,
33034033,
03301110,
1111,
20202011,
1111,
20202022,
1222,
2020200020202220,
2020202022202220,
5000000000801110,
#GOGOSTART
1110201000201120,
1110201000201120,
1110201000201120,
1110222010101110,
1110201000201120,
1110201000201120,
1110201000201120,
14141440,
1110201000201120,
1110201000201120,
1110201000201120,
3001201030012010,
1110201000201120,
1011201000201120,
1110201011102010,
1010101011111010,
#GOGOEND
#MEASURE 12/4
3,
#MEASURE 4/4
10000122,
1022,
10020000,
01,
10000122,
1022,
10020000,
01,
1021,
0121,
1021,
0000100020002220,
1021,
0121,
7,
#BARLINEOFF
0008,
#SCROLL 1.33
#BARLINEON
6,
8,
#SCROLL 1
33034033,
03302220,
33034033,
03301110,
33034033,
04402220,
33034033,
03301110,
1111,
20202011,
1111,
20202022,
1222,
2020200020202220,
2020202022202220,
1330,
#SCROLL 1.5
5008,
#SCROLL 1
#GOGOSTART
1110111011101110,
1110111010202010,
1110111011101110,
1110111020102010,
1110111011101110,
1110111010202010,
1110111011101110,
#GOGOEND
1010222010111000,
#GOGOSTART
1110111011101110,
1110111010202010,
1110111011101110,
1110111020102010,
1110111011101110,
1110111010202010,
1110111011101110,
1110111022202022,
#GOGOEND
#SCROLL 2
,
#GOGOSTART
6,
,
000000008000
#SCROLL 1
1111,
#GOGOEND
,
#END

COURSE:Normal
LEVEL:7
BALLOON:15
SCOREINIT:1590
SCOREDIFF:0
#START
3,
,
,
#SCROLL 1.5
11105008,
#SCROLL 1
10111011,
20120120,
10111011,
14040440,
10111011,
20120120,
20220220,
11105008,
10111011,
20120120,
10111011,
14040440,
10111011,
20120120,
20110110,
20120120,
3,
,
11105008,
33034033,
03300000,
33034033,
03300000,
33034033,
04400000,
33034033,
03300000,
1111,
2222,
1111,
2222,
1222,
22202220,
22222222,
5008,
#GOGOSTART
10210212,
11210212,
10210212,
11212220,
10210212,
11210212,
12020212,
14040440,
10210212,
11210212,
10210212,
30213021,
31210212,
31210212,
31201120,
5008,
#GOGOEND
#MEASURE 12/4
3,
#MEASURE 4/4
10000111,
1011,
10010000,
,
10000222,
2022,
20020000,
,
1021,
0121,
1021,
0122,
1021,
0121,
7,
#BARLINEOFF
0008,
#SCROLL 1.33
#BARLINEON
6,
8,
#SCROLL 1
33034033,
03300000,
33034033,
03300000,
33034033,
04400000,
33034033,
03300000,
1111,
2222,
1111,
2222,
1222,
22202220,
22222222,
1330,
#SCROLL 1.5
5008,
#SCROLL 1
#GOGOSTART
11101120,
11101121,
11101120,
11102121,
11101120,
11101121,
11101120,
#GOGOEND
5008,
#GOGOSTART
11101120,
11101121,
11101120,
11102121,
11101120,
11101121,
11101120,
11102222,
#GOGOEND
#SCROLL 1.5
,
#GOGOSTART
6,
,
000000008000
#SCROLL 1
1001,
#GOGOEND
,
#END

COURSE:Easy
LEVEL:5
BALLOON:7,10
SCOREINIT:2710
SCOREDIFF:0
#START
3,
,
,
#SCROLL 1.5
7008,
#SCROLL 1
1111,
20020020,
1111,
04040440,
1111,
20020020,
20020020,
5008,
1111,
20020020,
1111,
04040440,
1111,
20020020,
10010010,
20020020,
3,
,
5008,
30040030,
03000000,
30040030,
03000000,
30040030,
03000000,
30040030,
03000000,
11,
22,
11,
22,
12,
1222,
5,
8,
#GOGOSTART
1212,
10201021,
1212,
10201021,
1212,
10201021,
1212,
04040440,
1212,
10201021,
1212,
3232,
3212,
3212,
5,
8,
#GOGOEND
#MEASURE 12/4
3,
#MEASURE 4/4
1,
11,
1,
,
2,
22,
2,
,
12,
02,
12,
02,
12,
02,
7,
#BARLINEOFF
0008,
#SCROLL 1.33
#BARLINEON
6,
8,
#SCROLL 1
30040030,
03000000,
30040030,
03000000,
30040030,
03000000,
30040030,
03000000,
11,
22,
11,
22,
12,
1222,
5,
8330,
3,
#GOGOSTART
1212,
1212,
1212,
1212,
1212,
1212,
1212,
#GOGOEND
5008,
#GOGOSTART
1212,
1212,
1212,
1212,
3212,
3212,
3232,
30232030,
#GOGOEND
,
#GOGOSTART
6,
,
0000000080000003,
#GOGOEND
,
#END
