TITLE:Welcome To The Cafe
SUBTITLE:--Sukima Altera feat. ALTERNATiVE THEORY
WAVE:WelcomeToTheCafe.ogg
PREIMAGE:WelcomeToTheCafe1.jpg
BPM:150.00
OFFSET:-0.000
DEMOSTART:12.800
MAKER:Komi

COURSE:Oni
LEVEL:9
BALLOON:
#START
#MEASURE 4/4
1020020010010010,
0010010020010011,
1020020010010011,
0010011120210211,
1020120010011010,
1010110020011011,
1020120010011011,
2111211122112211,
#GOGOSTART
2010120210112010,
2010120120211022,
2010120210112010,
2010111120210210,
2010120210112010,
2010120120211022,
2011012011012010,
2102120120210210,
2010120210112021,
1010120120201112,
2010120210112020,
1010201120210210,
2010120210112010,
2010120120211011,
2011012011012010,
2111211121112212,
#GOGOEND
#BPMCHANGE 140.000000
1020120010011010,
1010110020011011,
#BPMCHANGE 130.000000
1020120010011010,
2111211122112211,
#BPMCHANGE 120.000000
2,
1000000000100100,
2000000000011010,
2000001110010100,
2,
1000000000100100,
2000000000011010,
2000001110000000,
2022022020202020,
1011011010101120,
2022022020222020,
1001010110010100,
2022022020202020,
1011011010101120,
2022022020222020,
1011112110111121,
#GOGOSTART
2022022020112020,
1011012010112120,
2022022020121020,
1021012010112110,
2012012020202020,
1021012010102120,
2022122020222120,
1011111010111110,
2022022020112020,
1011012010112120,
1122221122112211,
2121212111212110,
2012012020202020,
1021012010102120,
2022122020222120,
1010101011111111,
#GOGOEND
#BPMCHANGE 130.000000
2,
1,
2,
21,
#BPMCHANGE 140.000000
2,
1,
2,
2111211122112211,
#BPMCHANGE 150.000000
1020220010012010,
0010210020012011,
1020220010012011,
0010211120212211,
1020220010012010,
0010210020012011,
1020220010012011,
0202210120212011,
2010120210110010,
2010120120210022,
2010120210110010,
2010111120210210,
2010120210110010,
2010120120210022,
2011012011012010,
2102120120210210,
2010120210110020,
1010120120210022,
2010120210110020,
1010111120210210,
2010120210110010,
2010120120210011,
2011012011012010,
11111111,
100000100000100000100000100000100000100000100000100000100000100000100000100000001000000010000000,
#GOGOSTART
2010120210112010,
2010120120211022,
2010120210112010,
2010111120210210,
2010120210112010,
2010120120211022,
2011012011012010,
2102120120210210,
2022202020222020,
1011101010101120,
2220202021222020,
1221101021211210,
2022202020102020,
1021101010202120,
2022201020222120,
2111211121112212,
#GOGOEND
1020120010011010,
1010110020011011,
1020120010011011,
1010111120210211,
1020120010011010,
1010110020011011,
1020120010011011,
1211010120210210,
1020220010012010,
0010210020012011,
1020220010012011,
0010211120212211,
1020220010012010,
0010210020012011,
1020220010012011,
2111211122112211,
#END

COURSE:Edit
LEVEL:7
BALLOON:
#START
#MEASURE 4/4
0,
0,
0,
0,
0020020010010010,
0010010020010011,
0020020010010010,
2111211122111010,
#GOGOSTART
2000000000012000,
1111,
2000000000112020,
1122,
1000000000012020,
2000200010001011,
2001002001001020,
1221,
2000000000122022,
1000100010001111,
2000000000112020,
1122,
1000000000012020,
2000200010001011,
2001002001001020,
1221,
#GOGOEND
#BPMCHANGE 140.000000
0020020010010010,
0010010020010011,
#BPMCHANGE 130.000000
0020020010010010,
2111211122112211,
#BPMCHANGE 120.000000
2,
1,
2,
21,
2,
1,
2,
21,
2012012020202020,
1011011010101120,
2012012020222020,
1001110010011100,
2012012020202020,
1011011010101120,
2012012020222020,
1111111111111010,
#GOGOSTART
2000000000012000,
1000001000112010,
0010002000121010,
02012121,
01020102,
02010112,
0010201000200100,
20202110,
2000000000012000,
10020112,
2220202021201010,
2110101021202010,
01020102,
02010112,
0010201000200100,
20202110,
#GOGOEND
#BPMCHANGE 130.000000
2,
1,
2,
21,
#BPMCHANGE 140.000000
2,
1,
2,
2111211122112211,
#BPMCHANGE 150.000000
1020020010010010,
0010010020010011,
0020020010010011,
0010011120110110,
0020020010010010,
0010010020010011,
0020020010010010,
0101010020010010,
2000000000012000,
1111,
2000000000112020,
1122,
1000000000012020,
2000200010001011,
2001002001001020,
1221,
2000000000122022,
1000100010001111,
2000000000112020,
1122,
1000000000012020,
2000200010001011,
2001002001001020,
1221,
100100100100100100100100100100100100100010001000,
#GOGOSTART
2000000000012000,
1111,
2000000000112020,
1122,
1000000000012020,
2000200010001011,
2001002001001020,
1221,
2000000000012000,
10020112,
2220202021201010,
2110101021202010,
01020102,
02010112,
0010201000200100,
20202110,
00
#GOGOEND
20020010010010,
0010010020010011,
0020020010010011,
0010011120110110,
0020020010010010,
0010010020010011,
0020020010010010,
0101010020010010,
0202,
0202,
0202,
0202,
0202,
0202,
0202,
2111211122112211,
#END

COURSE:Hard
LEVEL:8
BALLOON:
#START
#MEASURE 4/4
1020020010010010,
0010010020010010,
1020020010010011,
0010010020010010,
1020020010010010,
1010010020010011,
0020020010010010,
1110101022202020,
#GOGOSTART
1020020010010010,
2010010020010011,
0020020010010010,
2010111020220110,
1020020010010010,
2010010020010020,
1020020010022020,
11222211,
1020020010010010,
2010010020010011,
0020020010010010,
2010111020220110,
1020020010010010,
2010010020010020,
1020020010020020,
1110101022202020,
#GOGOEND
#BPMCHANGE 140.000000
1020020010010010,
1010010020010011,
#BPMCHANGE 130.000000
1020020010011010,
1110101022202020,
#BPMCHANGE 120.000000
2,
1,
2,
21,
2,
1,
2,
21,
2002002020202020,
1001001010101020,
2002002020222020,
1001010010010100,
2002002020202020,
1001001010101020,
2002002020222020,
1011101010111010,
#GOGOSTART
2022022020102020,
1011011010101020,
2022022020101020,
1011011010102010,
2022022020202020,
1011011010102020,
2020102020222020,
1011101010111010,
2022022020102020,
1011011010101020,
1110222022201110,
2220111022202010,
2022022020202020,
1011011010102020,
2022202020222020,
1010101011111010,
#GOGOEND
#BPMCHANGE 130.000000
2,
1,
2,
21,
#BPMCHANGE 140.000000
2,
1,
2,
1110101022202020,
#BPMCHANGE 150.000000
1020020010010010,
0010010020010010,
1020020010010011,
0010010020010010,
1020020010010010,
0010010020010010,
1020020010010011,
0101010020010010,
1020020010010010,
2010010020010011,
0020020010010010,
2010111020220110,
1020020010010010,
2010010020010020,
1020020010022020,
11222211,
1020020010010010,
2010010020010011,
0020020010010010,
2010111020220110,
1020020010010010,
2010010020010020,
1020020010020020,
11111111,
100100100000100100100000100000100000100010001000,
#GOGOSTART
1020020010010010,
2010010020010011,
0020020010010010,
2010111020220110,
1020020010010010,
2010010020010020,
1020020010022020,
11222211,
2022202020222020,
1011101010101020,
2220202022202020,
1110101022201010,
2022202020102020,
1011101010202220,
2022201020202220,
1110101022202020,
#GOGOEND
1020020010010010,
0010010020010010,
1020020010010011,
0010010020010010,
1020020010010010,
0010010020010010,
1020020010010011,
0101010020010010,
1020020010010010,
0010010020010010,
1020020010010011,
0010010020010010,
1020020010010010,
1010010020010011,
0020020010010010,
1110101022202020,
#END

COURSE:Normal
LEVEL:6
BALLOON:
#START
#MEASURE 4/4
02000000,
01000000,
02000000,
01000000,
0020020010010010,
0010010020010010,
0020020010010010,
50008011,
#GOGOSTART
2002,
1111,
20000122,
1122,
10000022,
20201011,
2001002001001020,
1221,
20000120,
20101011,
20000122,
1122,
10000022,
20201011,
2001002001001020,
1221,
#GOGOEND
#BPMCHANGE 140.000000
0020020010010010,
0010010020010010,
#BPMCHANGE 130.000000
0020020010010010,
5082,
#BPMCHANGE 120.000000
2,
1,
2,
21,
2,
1,
2,
21,
2002002020202020,
1001001010101020,
2002002020202020,
1001010010010100,
2002002020202020,
1001001010101020,
2002002020202020,
11101111,
#GOGOSTART
2002,
10010121,
01020121,
02012121,
01020102,
02010112,
0010201000200100,
20202110,
2002,
10020112,
11222211,
22112221,
01020102,
02010112,
0010201000200100,
20202110,
#GOGOEND
#BPMCHANGE 130.000000
2,
1,
2,
21,
#BPMCHANGE 140.000000
2,
1,
2,
5082,
#BPMCHANGE 150.000000
0020020010010010,
0010010020010010,
0020020010010010,
0010010020010010,
0020020010010010,
0010010020010010,
0020020010010010,
0010010020010010,
2002,
1111,
20000122,
1122,
10000022,
20201011,
2001002001001020,
1221,
20000120,
20101011,
20000122,
1122,
10000022,
20201011,
2001002001001020,
1221,
5008,
#GOGOSTART
2002,
1111,
20000122,
1122,
10000022,
20201011,
2001002001001020,
1221,
2002,
10020112,
11222211,
22112221,
01020102,
02010112,
0010201000200100,
20202110,
00
#GOGOEND
20020010010010,
0010010020010010,
0020020010010010,
0010010020010010,
0020020010010010,
0010010020010010,
0020020010010010,
0010010020010010,
0202,
0202,
0202,
0202,
0202,
0202,
0202,
68,
3,
#END

COURSE:Easy
LEVEL:4
BALLOON:49
#START
#MEASURE 4/4
7,
0,
0,
0008,
11,
11,
11,
5081,
#GOGOSTART
2002,
1111,
2002,
1122,
1002,
2211,
20020010,
1221,
2002,
2111,
2002,
1122,
1002,
2211,
20020010,
1221,
#GOGOEND
#BPMCHANGE 140.000000
0202,
0202,
#BPMCHANGE 130.000000
0202,
5082,
#BPMCHANGE 120.000000
2,
1,
2,
21,
2,
1,
2,
21,
2022,
1011,
2022,
11,
2022,
1011,
2022,
1111,
#GOGOSTART
2002,
10010101,
01020101,
02010101,
01020102,
02010102,
01010200,
2221,
2002,
10020010,
1221,
2122,
01020102,
02010102,
01010200,
2221,
#GOGOEND
#BPMCHANGE 130.000000
2,
1,
2,
21,
#BPMCHANGE 140.000000
2,
1,
2,
5081,
#BPMCHANGE 150.000000
1202,
0202,
0202,
0202,
0202,
0202,
0202,
0202,
2002,
1111,
2002,
1122,
1002,
2211,
20020010,
1221,
2002,
2111,
2002,
1122,
1002,
2211,
20020010,
1221,
5008,
#GOGOSTART
2002,
1111,
2002,
1122,
1002,
2211,
20020010,
1221,
2002,
10020010,
1221,
2122,
01020102,
02010102,
01010200,
2221,
#GOGOEND
11,
11,
11,
11,
11,
11,
11,
11,
0202,
0202,
0202,
0202,
0202,
0202,
0202,
68,
3,
#END
