TITLE:Katharsis
SUBTITLE:--9C
WAVE:khatarsis.ogg
BPM:100
OFFSET:-0
DEMOSTART:76.800
MAKER:Komi

COURSE:Oni
LEVEL:8
BALLOON:75,55
#START
#MEASURE 4/4
#SCROLL 0.7
7,
00000008,
2210400022104000,
1210400012104000,
1110400011104000,
1120400011204000,
1210401012104000,
1210401012104000,
1120401011204000,
1210401012104000,
1122112211221122,
1122112211221122,
2112211221122112,
1112111211121112,
1122112211221122,
1122112211221122,
2112211221122112,
1112111211121112,
2110211021102110,
2110211021102110,
2111211121112111,
2111211121112111,
10104010101040
#SCROLL 4
58,
#SCROLL 0.7
12104010101040
#SCROLL 4
58,
#SCROLL 0.7
12104012121040
#SCROLL 4
58,
#SCROLL 0.7
101010200000400000100200100200100000400000
#SCROLL 4
500800,
#SCROLL 0.7
1210401012104010,
111200400100111200400100,
4011401140114011,
4141414141414140,
7,
0008
#SCROLL 0.1
5008,
#SCROLL 8
#GOGOSTART
50008000
#SCROLL 1
111110001020000011111000,
10200000111110001020000011111020,
#SCROLL 8
50000080
#SCROLL 1
111110001020000011111000,
10200000111110001020000011111000,
20001110100022201020000011111000,
10200000111110001020000011111020,
#SCROLL 8
50000080
#SCROLL 1
111110001020000011111000,
10200000111110001020000011111020,
#SCROLL 8
50000080
#SCROLL 1
201010001111202020101000,
11112020201010001111202020101000,
#SCROLL 8
50000080
#SCROLL 1
201010201000111120101020,
10001111201010201000111120101020,
#SCROLL 8
580580580580580580580000
#SCROLL 1
200000100000100000000000100100100100200000200000200000100000100000000000,
11112020201010001111202020101000,
#SCROLL 8
50000080
#SCROLL 1
201010201000111120101020,
10001111201010201000111120101020,
#GOGOEND
#SCROLL -0.000000000000000000000000000000000000000001
#BARLINEOFF
5,
0,
8,
#END

COURSE:Hard
LEVEL:6
BALLOON:60,38
#START
#MEASURE 4/4
#SCROLL 0.700000
7,
00000008,
21402140,
11401140,
11401140,
12401240,
11411140,
11411140,
12411240,
11411140,
1110222011102220,
1110222011102220,
2220111022201110,
1110222011102220,
1110222011102220,
1110222011102220,
2220111022201110,
1110222011102220,
2222,
2222,
21212121,
21212121,
10104010101040
#SCROLL 4
58,
#SCROLL 0.7
10104010101040
#SCROLL 4
58,
#SCROLL 0.7
10104011111040
#SCROLL 4
58,
#SCROLL 0.7
11204011111040
#SCROLL 4
58,
#SCROLL 0.7
11411141,
1120401011204010,
41414141,
44444444,
7,
0008
#SCROLL 0.1
5008,
#GOGOSTART
#BRANCHSTART p,75,90
#SECTION
#M
#SCROLL 8
5080
#SCROLL 1
111012001110,
1200111012001112,
#SCROLL 8
5008
#SCROLL 1
111012001110,
1200111012001110,
2011102012001110,
1200111012001112,
#SCROLL 8
5008
#SCROLL 1
111012001110,
1200111012001112,
#E
#SCROLL 1
5080111012001110,
1200111012001102,
5008111012001110,
1200111012001110,
2011102012001110,
1200111012001102,
5008111012001110,
1200111012001102,
#N
#SCROLL 1
G000101012001010,
1200101012001002,
1000101012001010,
1200101012001010,
2010102012001010,
1200101012001002,
1000101012001010,
1200101012001002,
#BRANCHEND
#BRANCHSTART p,80,92
#M
#SCROLL 8
5008
#SCROLL 1
221010222110,
1022211010222110,
#SCROLL 8
5008
#SCROLL 1
211210102112,
1010211210102112,
5008211010222110,
1022211010222110,
#SCROLL 8
5008
#SCROLL 1
211210102112,
1010211210102112,
#E
#SCROLL 1
5008201010220110,
1022011010220110,
5008210210102102,
1010210210102102,
5008201010220110,
1022011010220110,
5008210210102102,
1010210210102102,
#N
#SCROLL 1
1000201010222010,
1022201010222010,
1000200210102002,
1010200210102002,
1000201010222010,
1022201010222010,
1000200210102002,
1010200210102002,
#BRANCHEND
#SCROLL 99
#GOGOEND
5,
0,
8,
#END

COURSE:Normal
LEVEL:4
BALLOON:50,35
#START
#MEASURE 4/4
7,
00000008,
2424,
1414,
1414,
1414,
10401140,
10401140,
10401140,
10401140,
11221120,
11221120,
22112210,
11221120,
11221120,
11221120,
22112210,
11221120,
2222,
2222,
2222,
2222,
11401140,
11401140,
11411140,
11411140,
11411141,
11411141,
41414141,
44444444,
7,
0008
#SCROLL 0.1
5008,
#SCROLL 1
#GOGOSTART
4000100011001000,
1100100011001001,
1000100011001000,
1100100011001000,
2010102011001000,
1100100011001001,
1000100011001000,
1100100011001001,
10211021,
10211021,
1000200220002002,
2000200220002002,
20211021,
10211021,
1000200220002002,
2000200220002002,
#SCROLL 2
#GOGOEND
5,
0,
8,
#END

COURSE:Easy
LEVEL:3
BALLOON:40,30
#START
#MEASURE 4/4
7,
00000008,
0404,
0404,
0404,
0404,
1414,
1414,
1414,
1414,
1111,
2222,
2121,
1212,
1111,
2222,
2121,
1212,
22,
22,
2222,
2222,
1414,
1414,
1414,
1414,
1414,
1414,
4444,
4444,
7,
0008
#SCROLL 0.1
5008,
#SCROLL 1
#GOGOSTART
4111,
1111,
0111,
1111,
2211,
1111,
0111,
1111,
0212,
1212,
1222,
2222,
0212,
1212,
1222,
2222,
#SCROLL 2
#GOGOEND
5,
0,
8,
#END
