TITLE:2​-​Steppin' Love
TITLEJA:2​-​Steppin' Love
SUBTITLE:--FUNKYZUKIN ft. Hatsune Miku
SUBTITLEJA:FUNKYZUKIN ft. 初音ミク
BPM:137
WAVE:2 Steppin Love.ogg
LYRICS:2 Steppin Love.vtt
OFFSET:-0.168
DEMOSTART:71.992
PREIMAGE:2 Steppin Love.png
MAKER:Colin & Komi

COURSE:Edit
LEVEL:7
BALLOON:17,3
SCOREINIT:
SCOREDIFF:
NOTESDESIGNER4:0AuBSQ
#START
70000008,
1020201001102010,
1020201101102010,
1020201001102010,
1020201101102010,
1020201001102010,
1020201101102010,
1020201001102010,
1021201101102010,
1011201001102012,
1001201001102012,
1001201001102012,
1001201001102012,
1011201001102012,
1001201001102012,
1001201001102012,
101010202020101010202202,
2011201012102010,
2021202021101010,
2011201012102010,
2021202121101011,
2011201012102010,
2021202021101010,
2011201012102010,
200000200100200000200000100010001000200100100100,
2011201201102021,
1011201201102021,
1011201201102020,
2120212021201021,
2011201201102021,
1011201201102021,
1011201201102020,
2120212021207080,
2011202101102021,
1011201221102021,
1011211120102011,
2011211011202011,
2011202101102021,
1011201221102021,
1011211120102011,
200000100100200100200000100000200020200000200000,
#GOGOSTART
2011201012102010,
2021202121101011,
2011201012102010,
2021202121101011,
2011201012102010,
2021202121101011,
2021211121102110,
200100200000200100200100100020200000200020200020,
#GOGOEND
2011201012102010,
2021202021101010,
2011201012102010,
2021202121101011,
2011201012102010,
2021202021101010,
2011201012102010,
200000200100200000200000200020000020200020200020,
#SCROLL 1.25
G,
#END

COURSE:Oni
LEVEL:7
BALLOON:
SCOREINIT:
SCOREDIFF:
NOTESDESIGNER3:Colin
#START
50000008,
1010201001102010,
1010201101102010,
1010201001102010,
1010201101102010,
1010201001102010,
1010201101102010,
1010201001102010,
1011201101102010,
1010201001102010,
1010201101102010,
1010201001102010,
1010201101102010,
1010201001102010,
1010201101102010,
1010201001102010,
101010101010101010202202,
1010201001102010,
1010201101102010,
1010201001102010,
1010201101102010,
1010201001102010,
1010201101102010,
1010201001102010,
100100200010101010200000,
1010201021102010,
1010201121102010,
1011201021102012,
1010201121102010,
1010201021102010,
1010201101102010,
1010201021102010,
1010201101102010,
1010201021102012,
1010201121102012,
1010201021102010,
1012201101102010,
1010201021102010,
1010201121102010,
1010201021102010,
100000100000200000100100000100100020200000200000,
#GOGOSTART
1010201001102010,
1010201101102010,
1010201021102010,
1010201101102010,
1010201021102010,
1010201101102010,
1010201021102010,
100000100000200000100100000100100000200010200020,
#GOGOEND
1010201001102010,
1010201101102010,
1010201001102010,
1010201101102010,
1010201001102010,
1010201101102010,
1010201001102010,
100000100000200000100100200100200010200010200020,
1,
#END

COURSE:Hard
LEVEL:5
BALLOON:
SCOREINIT:
SCOREDIFF:
NOTESDESIGNER2:Colin
#START
50000008,
11200120,
11201020,
11200120,
11201020,
11200120,
11201020,
11200120,
11201020,
11200120,
11201020,
11200120,
11201020,
11200120,
11201020,
11200120,
50000800,
11200120,
11201020,
11200120,
11201020,
11200120,
11201020,
11200120,
11250080,
10211020,
12202020,
11202120,
12201150,
80202220,
1011101010105000,
80201111,
11111150,
0000800010102011,
0010200010101011,
01211581,
2002205000008000,
10121210,
10225008,
22202222,
5008,
#GOGOSTART
3333,
3000001110001000,
6,
00000008,
3333,
3000001110001000,
6,
00000008,
#GOGOEND
11200120,
11201020,
11200120,
11201020,
11200120,
11201020,
11200120,
11201020,
4,
#END

COURSE:Normal
LEVEL:5
BALLOON:
SCOREINIT:
SCOREDIFF:
NOTESDESIGNER1:Colin
#START
50000008,
2220,
2220,
2220,
2220,
2220,
2220,
2220,
2220,
1110,
1110,
1110,
1110,
1110,
1110,
1110,
5008,
1210,
1210,
1210,
1210,
1210,
1210,
1210,
10150080,
11101110,
1112,
11101110,
1112,
11101110,
1112,
11101110,
1112,
11101110,
1112,
11101110,
1112,
11101110,
1112,
11101110,
1112,
#GOGOSTART
3333,
6,
0,
00000008,
3333,
6,
0,
00000008,
#GOGOEND
2220,
2220,
2220,
2220,
2220,
2220,
2220,
2220,
4,
#END

COURSE:Easy
LEVEL:4
BALLOON:
SCOREINIT:
SCOREDIFF:
NOTESDESIGNER0:Colin
#START
50000008,
22,
22,
22,
22,
22,
22,
22,
22,
11,
11,
11,
11,
11,
11,
11,
5008,
1210,
11,
1210,
11,
1210,
11,
1210,
10150080,
1110,
1110,
1110,
1110,
1110,
1110,
1110,
1110,
1110,
1110,
1110,
1110,
1110,
1110,
11,
11,
#GOGOSTART
3003,
6,
0,
00000008,
3003,
6,
0,
00000008,
#GOGOEND
22,
22,
22,
22,
22,
22,
22,
22,
4,
#END
