TITLE:ˆÅ
TITLEEN:Yami
SUBTITLE:--TFD500
PREIMAGE:YamiAlbum.jpg
BPM:87.5
WAVE:Yami.ogg
OFFSET:-0
DEMOSTART:43.885
SCOREMODE:2
MAKER:bol

COURSE:Edit
LEVEL:11.3
BALLOON:2,2,2,2
SCOREINIT:780
SCOREDIFF:0
#START
#SCROLL 0.5
12120000
12120200,
12120000
12120202,
12120000
12120200,
1020102000000000
1020102000202022,
#SCROLL 1
#MEASURE 2/4
12120000,
12120200,
12120000,
12120202,
12120000,
12120200,
12120000,
1020102000202022,
#BPMCHANGE 175
#SCROLL 0.75
#MEASURE 4/4
1010102112011210,
1022120101211100,
1210220102112120,
1021221211201202,
1010102112011210,
1022120101211100,
2012212021201101,
2011212011201202,
#SCROLL 1
1022102101221011,
100000200200000100200100100000400000101010200000,
1022102101221011,
100000200100200200100200100100202020100200100200,
1022102101221020,
100000200200000100200100100000400000101010200000,
1022120101221120,
100000100200100000100200100100202020100100200200,
#GOGOSTART
1020120101222112,
100000200000100200000200100100200000202020100200,
1020120101122112,
100000200000100200000200100200200000201010100200,
1020120101222112,
100000200000100200000200100100200000202020100200,
1020120101221122,
100000400000400000200200100100202020100100200200,
1020120101212212,
100000200000100200000200100100200000101020100200,
1020120101212212,
100000200000100200000200100200200000201020200200,
1020120101212212,
100000200000100200000200100100200000101020100200,
1020120101220122,
100000200100200000200200101010202020100100200200,
#SCROLL 2
3,
#GOGOEND
#SCROLL 0.5
12120200,
12120000,
12120202,
12120000,
12120200,
12120000,
1020201000201022,
#SCROLL 0.75
2112112112112120,
1221221221221210,
1221221122212210,
2122211221221210,
2112112112112120,
1221221221221210,
1221221122212210,
1112222112222212,
#SCROLL 0.7
2212212212212210,
#SCROLL 0.65
1121121121121110,
#SCROLL 0.6
2112112112112110,
#SCROLL 0.55
#MEASURE 8/4
3000
#SCROLL 0.5
1122,
#MEASURE 4/4
#BPMCHANGE 87.5
#SCROLL 1
200200200000000000000000000000000000000000000000100000000000000020000000000000001000000000000000200000000000000000000000200000000000000000000000100000000000000020000000000000001000000000000000,
1110000020000000100000001000000020000000200000002000000010000000,
100200200000000000000000000000000000000000000000200000000000000000000000100000000000000000000000100000000000000010000000000000002000000000000000100000000000000020000000000000002000000000000000,
1220000020000000100000002000000012200000000000000000000000000000,
100200200000000000000000100000000000000000000000100000001000000020000000200000002000000010000000200000000000000020000000000000001000000000000000200000000000000010000000000000001000000000000000,
2210000010000000200000002000000020000000200000001000000010000000,
100200200000000000000000000000000000000000000000000000000000000000000000000000000000000000000000000000000000000000000000000000000000000000000000000000000000000000000000100010002000100020002000,
12200000000000000000000000000000
#SCROLL 2
20101020201010201020101020000000,
#BPMCHANGE 350
#MEASURE 8/4
#SCROLL 1
#GOGOSTART
100000000000100000000000100000000000100000100000100000000000100000000000100000100000100010001000,
100000000000100000000000100000000000100000100000100010001000
#SCROLL 0.75
#GOGOEND
200000000000000000000000000000000000,
#SCROLL 1
#GOGOSTART
1011111111111111,
100010002000100010002000100010001000200020002000100010001000200010001000200200200000200200200000,
100000000000100000000000100000000000100000100000100000000000100000000000100000100000100010001000,
100000000000100000000000100000000000100000100000100010001000
#SCROLL 0.75
#GOGOEND
200000000000000000000000000000000000,
#SCROLL 1
#GOGOSTART
1000100010001011,
100000100000100000100000100010001000100100100100
#GOGOEND
700000800000700000800000700000800000700000800000,
#GOGOSTART
#MEASURE 4/4
1010221010221010,
2210102210112011,
1010221010221020,
1111
#GOGOEND
200000000000,
#GOGOSTART
1010101011111010,
2020202022222020,
2010201011201220,
1010211022102220,
1010221010221010,
2210102210112011,
1010221010221020,
1111
#GOGOEND
200000000000,
#GOGOSTART
11,
10001011,
2010201011101010,
200000200000100010001000200200200200100000200000,
#GOGOEND
#SCROLL 0.5
#MEASURE 8/4
10102020201020101010201010102222,
#SCROLL 2
#GOGOSTART
#MEASURE 4/4
6,
#SCROLL 1
,
,
,
#GOGOEND
8,
#END

COURSE:Oni
LEVEL:9
BALLOON:3,5
SCOREINIT:1090
SCOREDIFF:0
#START
12120000
12120200,
12120000
12120202,
12120000
12120200,
1020102000000000
1020102000202022,
#MEASURE 2/4
12120000,
12120200,
12120000,
12120202,
12120000,
12120200,
12120000,
1020102000202022,
#BPMCHANGE 175
#MEASURE 4/4
2020200222002020,
1020120101200000,
2202002000202020,
1020121121200000,
2020200222002020,
1020120101200000,
2002202020002202,
1010210201201120,
#SCROLL 1
1020102210021011,
1020120101201120,
1020102210021011,
1020121121201220,
1020102210021011,
1020120101201120,
1000101110021011,
1022102211221120,
#GOGOSTART
1020120101222011,
1020120111508000,
1020120101222011,
1020121121202010,
1020120101222011,
1020120111508000,
1020120101112012,
1010102211221120,
1020120210110112,
1020120211508000,
1020120211102011,
1020120211202010,
1020120210110112,
1020120211508000,
1020120212201011,
1010202211221120,
3,
#GOGOEND
12120200,
12120000,
12120202,
12120000,
12120200,
12120000,
1000102000202011,
2202202202202220,
1101101101101110,
1201201201202220,
2101202101202210,
2202202202202220,
1101101101101110,
1201201201202220,
2101202101202212,
2,
#SCROLL 0.85
2,
#SCROLL 0.7
1,
#SCROLL 0.55
#MEASURE 8/4
3000
#SCROLL 0.5
2222,
#MEASURE 4/4
#BPMCHANGE 87.5
#SCROLL 1
400000102010200200102010,
32112221,
400000200100101020102020,
32124000,
400100112221202010201010,
41222211,
300000000000000000000708,
4000000000000000
#SCROLL 2
2221222122212000,
#BPMCHANGE 350
#MEASURE 8/4
#SCROLL 0.75
#GOGOSTART
10101011
10101111,
100000100000100000100100
101010
#GOGOEND
200000000000000000,
#GOGOSTART
10111111
11111110,
100100100100202020100000
200200100100202020200000,
10101011
10101111,
100000100000100000100100
101010
#GOGOEND
200000000000000000,
#GOGOSTART
10001000
10001011,
100100100100101010101010
#GOGOEND
700000000000000000800000,
#GOGOSTART
#MEASURE 4/4
10201201,
01222011,
10201201,
111
#GOGOEND
200000000,
#GOGOSTART
10201201,
01222011,
10201211,
200101010200000100200000,
10201201,
01222011,
10201201,
111
#GOGOEND
200000000,
#GOGOSTART
10201201,
01112012,
10101022,
11214444,
#GOGOEND
#SCROLL 0.5
#MEASURE 8/4
58586868,
#SCROLL 1
#GOGOSTART
#MEASURE 4/4
3,
#SCROLL 1
,
,
,
#GOGOEND
,
#END

COURSE:Hard
LEVEL:8
BALLOON:10
SCOREINIT:1530
SCOREDIFF:0
#START
#SCROLL 2
12120000
12120200,
12120000
12120202,
12120000
12120200,
1020102000000000
1020102000202011,
#MEASURE 2/4
12120000,
12120200,
12120000,
12120202,
12120000,
12120200,
12120000,
1020102000202011,
#BPMCHANGE 175
#MEASURE 4/4
#SCROLL 1
1010110101110010,
1020120101200000,
1010110101110010,
1020120201200000,
1010110101110010,
1020120101200000,
1010110101110010,
1020200202002020,
1000100010001011,
10101110,
1000100010001011,
1000100011101110,
1000100010001011,
10101110,
1000100010001011,
1000100010111011,
#GOGOSTART
1020102010001011,
12121400,
1020102010001011,
12121400,
1020102010001011,
12121400,
1020102010001011,
1010101010111011,
1020102010110111,
12121400,
1020102011101011,
12121402,
1020102010110111,
12121400,
1000100010001011,
1010101010111011,
1,
#GOGOEND
12120200,
12120000,
12120202,
12120000,
12120200,
12120000,
1000102000202011,
12120000,
12120200,
12120000,
12120202,
12120000,
12120200,
12120000,
1000102000202011,
,
#SCROLL 0.85
,
#SCROLL 0.7
,
#SCROLL 0.55
#MEASURE 8/4
3,
#MEASURE 4/4
#BPMCHANGE 87.5
#SCROLL 1
4022,
3022,
4022,
34,
4022,
3022,
3,
4000
#SCROLL 2
7008,
#BPMCHANGE 350
#MEASURE 8/4
#SCROLL 0.5
#GOGOSTART
10101011
10101000,
10101011
10
#GOGOEND
200000,
#GOGOSTART
10111011
10111000,
11101110
22202220,
10101011
10101000,
10101011
10
#GOGOEND
200000,
#GOGOSTART
10001000
10001011,
10111011
#GOGOEND
50008000,
#GOGOSTART
#MEASURE 4/4
10101110,
11101000,
10101110,
1
#GOGOEND
200,
#GOGOSTART
10101110,
11101000,
11101110,
22202220,
10101110,
11101000,
10101110,
1
#GOGOEND
200,
#GOGOSTART
11,
10001011,
10101011,
11102222,
#GOGOEND
#MEASURE 8/4
,
#SCROLL 1
#GOGOSTART
#MEASURE 4/4
3,
#SCROLL 1
,
,
,
#GOGOEND
,
#END

COURSE:Normal
LEVEL:6
BALLOON:
SCOREINIT:2340
SCOREDIFF:0
#START
#SCROLL 2
10000000
10000200,
10000000
10020200,
10000000
10000200,
10000000
10020220,
#MEASURE 2/4
10000000,
10000200,
10000000,
10020200,
10000000,
10000200,
10000000,
10020220,
#BPMCHANGE 175
#MEASURE 4/4
#SCROLL 1
1000100101010000,
1000100200200000,
1000100101010000,
1000100200200000,
1000100101010000,
1000100200200000,
1000100101010000,
10102220,
10101011,
10101110,
10101011,
10101110,
10101011,
10101110,
10101011,
10101110,
#GOGOSTART
1000100101010010,
10101400,
1000100101010010,
10101400,
1000100101010010,
10101400,
1000100101010010,
11115008,
1000100101010010,
10101400,
1000100101010010,
10101400,
1000100101010010,
10101400,
1000100101010010,
11115008,
3,
#GOGOEND
10000200,
1,
10020200,
1,
10000200,
1,
10020220,
1001001001000000,
2002002002000000,
1001001001000000,
2002002002000000,
1001001001000000,
2002002002000000,
1001001001000000,
2002002002000000,
,
,
,
#MEASURE 8/4
3,
#MEASURE 4/4
#BPMCHANGE 87.5
#SCROLL 2
4022,
3022,
4022,
34,
4022,
3022,
3,
40005008,
#BPMCHANGE 350
#MEASURE 8/4
#SCROLL 0.5
#GOGOSTART
1111
1110,
1111
1
#GOGOEND
200,
#GOGOSTART
1111
1110,
1110
2200,
1111
1110,
1111
1
#GOGOEND
200,
#GOGOSTART
1010
1011,
1110
#GOGOEND
5080,
#GOGOSTART
#MEASURE 4/4
1111,
1110,
1111,
1
#GOGOEND
200,
#GOGOSTART
1111,
1110,
1110,
2222,
1111,
1110,
1111,
1
#GOGOEND
200,
#GOGOSTART
11,
1011,
1111,
3344,
#GOGOEND
#MEASURE 8/4
,
#SCROLL 1
#GOGOSTART
#MEASURE 4/4
3,
#SCROLL 1
,
,
,
#GOGOEND
,
#END

COURSE:Easy
LEVEL:3
BALLOON:
SCOREINIT:4210
SCOREDIFF:0
#START
#SCROLL 2
10000000
10000200,
10000000
10000200,
10000000
10000200,
10000000
10020020,
#MEASURE 2/4
10000000,
10000200,
10000000,
10000200,
10000000,
10000200,
10000000,
10020020,
#BPMCHANGE 175
#MEASURE 4/4
#SCROLL 1
11,
10000200,
11,
10000200,
11,
10000200,
11,
12,
1111,
1110,
1111,
1110,
1111,
1110,
1111,
1110,
#GOGOSTART
1110,
10100400,
1110,
10100400,
1110,
10100400,
1110,
5008,
1110,
10100400,
1110,
10100400,
1110,
10100400,
1110,
5008,
3,
#GOGOEND
,
1,
,
1,
,
1,
,
10000000,
10000200,
10000000,
10000200,
10000000,
10000200,
10000000,
10020020,
,
,
,
#MEASURE 8/4
3,
#MEASURE 4/4
#BPMCHANGE 87.5
#SCROLL 2
4,
3,
4,
34,
4,
3,
3,
4,
#BPMCHANGE 350
#MEASURE 8/4
#SCROLL 0.5
#GOGOSTART
11
11,
1010
0
#GOGOEND
200,
#GOGOSTART
11
11,
11
20,
11
11,
1010
0
#GOGOEND
200,
#GOGOSTART
11
11,
11
#GOGOEND
10,
#GOGOSTART
#MEASURE 4/4
11,
11,
11,
0
#GOGOEND
200,
#GOGOSTART
11,
11,
11,
2,
11,
11,
11,
0
#GOGOEND
200,
#GOGOSTART
11,
11,
1110,
5,
#GOGOEND
#MEASURE 8/4
8,
#SCROLL 1
#GOGOSTART
#MEASURE 4/4
3,
#SCROLL 1
,
,
,
#GOGOEND
,
#END
