TITLE:Alonebirthday
SUBTITLE:--Taichenko
BPM:165
WAVE:Alonebirthday.ogg
PREIMAGE:Alonebirthday.png
OFFSET:-0
DEMOSTART:81.45
SCOREMODE:2
MAKER:Taichenko_oni, Komi & bol

COURSE:Edit
LEVEL:10.2
BALLOON:7
SCOREINIT:690
SCOREDIFF:0
#START
1011201020102010,
0000000000000012,
1011201020201020,
,
1011201020102010,
0000000000000021,
2011201020201020,
00007008,
3011201120102010,
0000100020001012,
1011201020201020,
0121,
1011201120102010,
0000100020001021,
2011201020201020,
0000100120102022,
1011201212102011,
2110201212102012,
1011201212102011,
2110201212102012,
1110102212101022,
1210102212101020,
1110102211111111,
102102122210
#SCROLL 1.5
4000,
#SCROLL 1
#GOGOSTART
200000100000202020100100200000200100200000100000,
200000100100202020100100200100100000200000200100,
100100200200202020100100200200100100200200100100,
2112212111112222,
200000100000202020100100200000200100200000100000,
200000100100202020100100200100100000200000200100,
100100202020100000200000000100200100200100100100,
2012201120201011,
200000100000202020100100200000200100200000100000,
200000100100202020100100200100100000200000200100,
100100200200202020100100200200100100200200100100,
2112212111112222,
200000100000202020100100200000200100200000100000,
200000100100202020100100200100100000200000200100,
100100202020100000200000000100200100200100100100,
2012201120120120,
#GOGOEND
33,
33,
33,
33,
1210101212101011,
2110101212101011,
2110101212101011,
2110101212101011,
2120102121201021,
2110102121201021,
2110102121201021,
2110102121201021,
22222222,
22222222,
2222222222222222,
222222222222
#SCROLL 0.5
2000,
#SCROLL 1
2011201020002010,
0010101120101010,
1000201120101010,
0121,
1011201020001020,
01022121,
2022101020211010,
01102000,
2011201020001020,
01022121,
2010201120101020,
01122112,
1011201020101020,
01022121,
2022101020200010,
0010201020102122,
#GOGOSTART
2011201120102010,
1110101120102011,
2110201120121010,
1210101121101022,
1011201020101020,
1110102020102011,
2022101020211011,
2110101212101022,
2011201020101020,
1110102020102011,
2010201120101020,
1210102020101022,
1011201020101020,
1210102020102011,
2022101020201010,
1210201120102122,
#GOGOEND
2,
,
2,
22,
2222,
2222,
22222222,
2222222111112012,
#GOGOSTART
200000100000202020100100200000200100200000100000,
2211222111112122,
100000100000202020100100200000100100200100200000,
2111211121112111,
200000100000202020100100200000200100200000100000,
2211222122112122,
200000100000202020100100200000100100200100200100,
2111211121112121,
200000100000202020100100200000200100200000100000,
2211222111112122,
100000100000202020100100200000100100200100200000,
2111211121112111,
200000100000202020100100200000200100200000200200,
100000000100000000100000200000101010200000100200,
200200100100202020100100200100100100200100200100,
2111211121112121,
#GOGOEND
#MEASURE 1/4
101010101010,
#GOGOSTART
#MEASURE 4/4
1011201020102010,
0000000000000012,
#GOGOEND
1011201020201020,
,
1011201020102010,
0000000000000021,
2011201020201020,
0
#SCROLL 0.90
200
#SCROLL 0.81
200
#SCROLL 0.73
200
#SCROLL 0.66
200
#SCROLL 0.60
200,
#SCROLL 0.54
2,
#END

COURSE:Oni
LEVEL:9
BALLOON:
SCOREINIT:860
SCOREDIFF:0
#START
#SCROLL 0.8
20202022,
0000000000000022,
20202222,
,
20202022,
0000000000000022,
20202222,
,
#SCROLL 1
30102011,
0000000020000022,
10102212,
02,
30102011,
02,
10102212,
0000000120102022,
1010202210102010,
0210201022102012,
1010201122102010,
0210201122102012,
1020102210201022,
1020102212021020,
11115000,
8021021022104000,
#GOGOSTART
1001221020112021,
2011221120102022,
1111201121012010,
2211202122122222,
1000221021012010,
2122121120112022,
1021201210112112,
1021121110102011,
1001221020112021,
2011221120102022,
1111201121012010,
2211202122112222,
1000221021012010,
2122121120112022,
1021201210112112,
1021121120120120,
#GOGOEND
1
#SCROLL 0.5
1,
11,
11,
11,
#SCROLL 0.8
1002202010022020,
1002202012020220,
1002202010022020,
1002202012020220,
#SCROLL 1
1220102112201021,
1220102112021020,
1110201202102012,
0210212202102012,
1110201111102011,
1110201111012010,
5,
0008,
#SCROLL 0.8
30102011,
01012012,
10102212,
01102011,
10102011,
01012212,
10212212,
01102011,
30102012,
01012112,
10212112,
01112012,
11012101,
01012122,
12012112,
0010001020102122,
#SCROLL 1
#GOGOSTART
1010201101112010,
0210201210102012,
1010201121012010,
0210201212102022,
1000201110102012,
0210202211012012,
1021201211012010,
0210201202102022,
1000201102112020,
0210201210102012,
1010201002102010,
0210201211102022,
1010201101112010,
0210201210102012,
1020201000112010,
0010201210202222,
#GOGOEND
1,
,
1,
11,
1111,
1111,
11111111,
1111111111112012,
#GOGOSTART
1011221020112010,
1112201122112022,
1021221020112020,
2211201121012122,
1000221020112010,
1112201221012022,
1021221020112021,
2012012211102012,
1001221020112010,
1112221122112122,
1021221020112020,
2211221121112122,
1000001040001022,
100000000100000000100000400000101010200000100200,
1021221212102122,
1021012211112222,
#GOGOEND
#BARLINEOFF
#MEASURE 1/4
111111,
#BARLINEON
#MEASURE 4/4
#GOGOSTART
#SCROLL 2
6,
,
#GOGOEND
8,
#SCROLL 1
,
20202022,
0000000000000022,
20202222,
,
,
#END

COURSE:Hard
LEVEL:7
BALLOON:3
SCOREINIT:1240
SCOREDIFF:0
#START
20202022,
00000002,
20202222,
,
20202022,
00000002,
20202222,
,
30102011,
00002002,
10102011,
02,
30102011,
02,
10102011,
0000000120102000,
10210121,
01200120,
10210121,
01200122,
1111,
1111,
11011011,
1001001000104000,
#GOGOSTART
1000201110102010,
0010201110102011,
1000201110102010,
0010201110202220,
1000201110102010,
0010201110102011,
1000201110102010,
2002201020102000,
1000201110102010,
0010201110102011,
1000201110102010,
0010201110202220,
1000201110102010,
0010201110102011,
1000201110102010,
1001201020020020,
#GOGOEND
31,
11,
11,
11,
1002002010020020,
1002002010020020,
1002002010020020,
1002002010020020,
1111,
1111,
1111,
1111,
11111111,
11111111,
5,
0008,
30012011,
01102010,
10012011,
01102020,
10012011,
01102010,
10012011,
01102020,
30012011,
01102010,
10012011,
01102020,
10012011,
01102010,
10012011,
0010001020102220,
#GOGOSTART
1000201110102010,
0010201110102011,
1000201110102010,
0010201110102020,
1000201110102010,
0010201110102011,
1000201110102010,
0010201110102020,
1000201110102010,
0010201110102011,
1000201110102010,
0010201110102020,
1000201110102010,
0010201110102011,
1000201110102010,
0010202220102220,
#GOGOEND
1,
,
1,
11,
1111,
1111,
11111111,
5008,
#GOGOSTART
1010201110102010,
0010201110102011,
1010201110102010,
0010201110102020,
1010201110102010,
0010201110102011,
1010201110102010,
2002002011102020,
1010201110102010,
0010201110102011,
1010201110102010,
0010201110102020,
10012012,
1001001020102010,
1010201110102010,
1001001110222020,
#GOGOEND
#BARLINEOFF
#MEASURE 1/4
7008,
#BARLINEON
#MEASURE 4/4
#GOGOSTART
6,
,
#GOGOEND
8,
,
20202022,
00000002,
20202222,
,
,
#END

COURSE:Normal
LEVEL:5
BALLOON:
SCOREINIT:1970
SCOREDIFF:0
#START
20202022,
,
20202022,
,
20202022,
,
20202022,
,
30002001,
02,
10002001,
02,
30002001,
02,
10002001,
00002120,
10200120,
10200120,
10200120,
10200120,
1111,
1111,
10010010,
1001001000102000,
#GOGOSTART
10201021,
01200120,
10201121,
01200120,
10201021,
01200120,
10201121,
01200120,
10201021,
01200120,
10201121,
01200120,
10201021,
01200120,
10201121,
0010200020020020,
#GOGOEND
31,
11,
11,
11,
31,
11,
11,
11,
1111,
1111,
1111,
1111,
11101110,
11101110,
5,
0008,
30012001,
01002000,
10012001,
0120,
10012001,
01002000,
10012001,
0120,
30012001,
01002000,
10012001,
0120,
10012001,
01002000,
10012001,
01012120,
#GOGOSTART
10201021,
01200120,
10201121,
01200120,
10201021,
01200120,
10201121,
01200120,
10201021,
01200120,
10201121,
01200120,
10201021,
01200120,
10201121,
01211220,
#GOGOEND
1,
,
1,
11,
1111,
1111,
11101110,
5008,
#GOGOSTART
10201021,
01200120,
10201121,
01200120,
10201021,
01200120,
10201121,
2002002010002000,
10201021,
01200120,
10201121,
01200120,
10012012,
1001001020102000,
10210121,
1001001020202020,
#GOGOEND
#BARLINEOFF
#MEASURE 1/4
,
#BARLINEON
#MEASURE 4/4
#GOGOSTART
6,
,
#GOGOEND
8,
,
20202022,
,
20202022,
,
,
#END

COURSE:Easy
LEVEL:4
BALLOON:
SCOREINIT:3440
SCOREDIFF:0
#START
20002002,
,
20002002,
,
20002002,
,
20002002,
,
32,
02,
12,
02,
32,
02,
12,
0022,
1202,
1202,
1202,
1202,
1111,
1111,
1,
1001001000002000,
#GOGOSTART
1202,
1202,
1202,
1202,
1202,
1202,
1202,
1202,
1202,
1202,
1202,
1202,
1202,
1202,
1202,
1000200020020020,
#GOGOEND
3,
,
,
,
3,
,
,
,
11,
11,
11,
11,
1110,
1110,
5,
0008,
32,
01002000,
12,
0120,
12,
01002000,
12,
0120,
32,
01002000,
12,
0120,
12,
01002000,
12,
01002020,
#GOGOSTART
1202,
0202,
1202,
0202,
1202,
0202,
1202,
0202,
1202,
0202,
1202,
0202,
1202,
0202,
1202,
0212,
#GOGOEND
1,
,
1,
1,
1110,
1110,
1111,
5008,
#GOGOSTART
1202,
0202,
1202,
0202,
1202,
0202,
1202,
5008,
1202,
0202,
1202,
0202,
12,
1001001020002000,
1202,
1001001050000000,
#GOGOEND
#BARLINEOFF
#MEASURE 1/4
8,
#BARLINEON
#MEASURE 4/4
#GOGOSTART
6,
,
#GOGOEND
8,
,
20002002,
,
20002002,
,
,
#END
