TITLE:ENDOMANCER
SUBTITLE:--Zovi
WAVE:ENDOMANCER.ogg
PREIMAGE:ENDOMANCER.png
LYRICS:ENDOMANCER.vtt
BPM:174.00
OFFSET:-0.150
DEMOSTART:21.874
MAKER:Komi

COURSE:Oni
LEVEL:8
BALLOON:31,33
#START
#MEASURE 4/4
1011201021102022,
1011201020212020,
1011201020002022,
1011201121002121,
1011201020002022,
1011201020212020,
1011201021012021,
2011201121002121,
1011200011112010,
1011200010102021,
1011200110112011,
1000200110112111,
1000200010112010,
1011200110112021,
1000202210112020,
#SCROLL 0.75
5008,
#SCROLL 1
#GOGOSTART
1021201110212011,
1021201110102111,
2010200110112011,
1010200111112011,
1021201110212011,
1021201110102111,
2010222020102220,
1010202110102222,
1021201110212011,
1021201110102111,
2010200110112011,
1010200111112021,
0021201110212011,
1021201110102111,
2010222020102220,
1020102110102021,
#GOGOEND
2022,
4022,
4010200220102002,
2010200020102011,
2022,
4022,
4010200220102002,
2010200020102011,
2022,
4022,
4010200220102002,
2010200020102011,
2022,
4022,
7,
0008,
2222222202202200,
2222222202202200,
2222222202202200,
2222222202202200,
1111111101101100,
1111111101101100,
1111111101101100,
1111111101101100,
2222222202202200,
2222222202202200,
2222222202202200,
2222222202202200,
2222222202202200,
2222222202202200,
7,
0000000080101210,
#GOGOSTART
1010211120102111,
2010211021201120,
1010211120102111,
2010211021201120,
1010211120102111,
2010211021201120,
1010211120102111,
2010211021201120,
1011211010112110,
1011211010212120,
1011211010112110,
1011211010212120,
1011211010112110,
1011211010212120,
#SCROLL 0.5
#GOGOEND
5,
000000000080
#SCROLL 5
5858,
#END

COURSE:Hard
LEVEL:6
BALLOON:26,29
#START
#MEASURE 4/4
1001100020102000,
1001100020102020,
1001100020102000,
1001100022002200,
1001100020102000,
1001100020102020,
1001100020102000,
1001100022002200,
1001100010102000,
1001100010102020,
1001100010102010,
10201121,
10201121,
1001100010102020,
10221122,
5008,
#GOGOSTART
1020200110202001,
1020200110102010,
21201121,
1010200110102010,
1020200110202001,
1020200110102010,
21222122,
11221122,
1020200110202001,
1020200110102010,
21201121,
1010200110102020,
0020200110202001,
1020200110102010,
21222122,
12121122,
#GOGOEND
2022,
4022,
41202120,
21202121,
2022,
4022,
41202120,
21202121,
2022,
4022,
41202120,
21202121,
2022,
4022,
7,
0008,
5000000802202200,
5000000802202200,
5000000802202200,
5000000802202200,
5000000801101100,
5000000801101100,
5000000801101100,
5000000801101100,
5000000802202200,
5000000802202200,
5000000802202200,
5000000802202200,
5000000802202200,
5000000802202200,
7,
08,
#GOGOSTART
11210121,
11210212,
11210121,
11210212,
11210121,
11210212,
11210121,
1010201000000001,
11211121,
11211121,
11211121,
11211121,
11211121,
11211121,
#SCROLL 0.05
#GOGOEND
5,
000000000080
#SCROLL 1
5008,
#END

COURSE:Normal
LEVEL:4
BALLOON:22,24
#START
#MEASURE 4/4
1012,
1012,
1012,
1212,
1012,
1012,
1012,
1212,
11101020,
11101020,
11101020,
1212,
11101020,
11101020,
11101020,
5008,
0
#GOGOSTART
2200220,
02200110,
12010101,
1212,
02200220,
02201101,
00220102,
10201100,
22200220,
02200110,
12010101,
1212,
02200220,
02201101,
00220102,
10201100,
#GOGOEND
2022,
4022,
4222,
2222,
2022,
4022,
4222,
2222,
2022,
4022,
4222,
2222,
2022,
4022,
7,
0008,
5000000805805800,
5000000805805800,
5000000805805800,
5000000805805800,
5000000805805800,
5000000805805800,
5000000805805800,
5000000805805800,
5000000805805800,
5000000805805800,
5000000805805800,
5000000805805800,
5000000805805800,
5000000805805800,
7,
08,
#GOGOSTART
11201020,
11200120,
20101120,
10200222,
01201010,
12002011,
20201021,
01021210,
01201020,
10210121,
10211011,
01012010,
10101101,
10201120,
#GOGOEND
5,
0000000000805008,
#END

COURSE:Easy
LEVEL:1
BALLOON:19,16
#START
#MEASURE 4/4
1,
1,
1,
1,
1,
1,
1,
0,
1,
1,
1,
1,
1,
1,
1,
5008,
0
#GOGOSTART
202,
0200,
0,
0,
0202,
0200,
10000100,
11,
0202,
0200,
0,
0,
0202,
0200,
0,
1110,
#GOGOEND
2,
4,
4,
0,
2,
4,
4,
0,
2,
4,
4,
0,
2,
4,
7,
0008,
5008,
5008,
5008,
5008,
5008,
5008,
5008,
5008,
5008,
5008,
5008,
5008,
5008,
5008,
7,
08,
#GOGOSTART
11,
1,
11,
1,
11,
1,
11,
1,
21,
11,
21,
11,
21,
1011,
#GOGOEND
5,
0,
8,
#END
