TITLE:RUiNED GLORY
SUBTITLE:--Sukima Altera
WAVE:RUiNED GLORY.ogg
BPM:200
OFFSET:-0
DEMOSTART:103.200
MAKER:Komi & bol

COURSE:Oni
LEVEL:10.0
BALLOON:12,12,24
SCOREINIT:690
SCOREDIFF:0
#START
31,
12,
1,
1,
02,
12,
2,
1,
31,
12,
1,
1,
02,
12,
2,
2000000000000011,
11212121,
1010201020112020,
1010201120101010,
2010101120102011,
11212111,
2010101120102010,
33033003,
2020202011101011,
11212121,
2010212020112120,
2010201120102010,
2010201120102121,
21433343,
33433341,
1111111111111111,
2222222222222222,
,
0000000021104000,
#GOGOSTART
#SCROLL 1.33
4444,
40404041,
4444,
4000400041104000,
4444,
4000400040114010,
4444,
4000401040114000,
4444,
4000400040004110,
4444,
4000401041014010,
42424242,
42424242,
42424242,
2222222222222222,
#GOGOEND
#SCROLL 1
1011201020112010,
1011201020112020,
2011201020112010,
2011500080115000,
8011201020112010,
2011201020112020,
1011201020112010,
#SCROLL 1.33
400040004000400040002220,
#SCROLL 1
1011201020112010,
1011201020112020,
2011201020112010,
2011111122221110,
1011201020112010,
2011201020112020,
1011201020112010,
#SCROLL 1.33
404044404044,
#SCROLL 1
1011201020112010,
1011201020112020,
2011201020112010,
2011500080115000,
8011201020112010,
2011201020112020,
1011201020112010,
#SCROLL 1.33
404040404044,
#SCROLL 1
1011201020112010,
1011201020112020,
2011201020112010,
1012101010121010,
2021202020212020,
2021202020212020,
1111111111111111,
2222222222222222,
02,
22,
2,
2000000021104010,
#GOGOSTART
1010201110102021,
1010201020121010,
21112111,
2010101110101020,
1010201110102021,
1010201020121010,
21212121,
20101011
#GOGOEND
10102222,
#GOGOSTART
1010201110102021,
1010201020121010,
21112111,
2010101110101020,
1010201110102021,
1010201020121010,
21212121,
2010201020212010,
1010201110102021,
1010201020121010,
21112111,
2010101110101021,
1010201110102021,
1010201020121010,
21212121,
200000100100100000100100
#GOGOEND
100000100000202020200000,
10112011
#GOGOSTART
20102021,
1010201020121010,
21112111,
2010101110101020,
1010201110102021,
1010201020121111,
201020201120,
200000001000000010001000100000000100200000200000,
#GOGOEND
7000000000008011,
70000081,
#GOGOSTART
21112111,
2010101110101020,
1010201110102021,
1010201020121111,
2000101120002010,
2000101120102010,
1010201110102021,
1010201020121010,
21112111,
2010101110101020,
1010201110102021,
1010201021111111,
201020201021201020201020,
200000101010200000100100200100101010200000100000,
#GOGOEND
07,
00000008,
#GOGOSTART
3,
,
,
,
#GOGOEND
,
#END

COURSE:Hard
LEVEL:8
BALLOON:3
SCOREINIT:950
SCOREDIFF:0
#START
32,
22,
2,
2,
02,
22,
2,
2,
32,
22,
2,
2,
02,
22,
2,
2,
3122,
10102022,
1122,
2221,
1121,
2122,
1121,
2212,
1122,
10102022,
1122,
2221,
11211121,
11211121,
1110111011101110,
2220222022202220,
,
2214,
#GOGOSTART
1111,
10101012,
1111,
1000100011201000,
1111,
1000100010111020,
1111,
1000101020221000,
1111,
1000100010001120,
1111,
1000101011011020,
12121212,
12121212,
11111111,
2220222022202220,
#GOGOEND
1011101110002000,
1011101110222000,
1011101110002000,
1000222010002220,
1011101110002000,
1011101110222000,
1011101110002000,
4004004030030030,
1011101110002000,
1011101110002220,
1011101110002000,
1000111022201000,
1011101110002000,
1011101110002220,
1011101110002000,
101011101011,
1011101110002000,
1011101110222000,
1011101110002000,
1000222010002220,
1011101110002000,
1011101110222000,
1011101110002000,
404040303058,
1011101110002000,
1011101110002220,
1011101110010020,
1001002010010020,
1001001010010010,
1001001010010011,
1110111011101110,
2220222022202220,
3,
,
,
0000000011104000,
#GOGOSTART
1010200011102000,
1010200010102220,
11201120,
1010201011102010,
1010200011102000,
1010200010102220,
21202120,
10002011
#GOGOEND
10002222,
#GOGOSTART
1010200010102011,
1000201011102010,
11201120,
1010201011102020,
1010200010102011,
1000201011102010,
11201120,
2010201020002220,
1010200011102000,
1010200010102220,
11201120,
1010201010102011,
1010200010102011,
1010200010112000,
21202120,
10111011
#GOGOEND
20201000,
10111000
#GOGOSTART
40002010,
1010200010102220,
11201120,
1010200011102020,
1010200010102011,
1000201011102020,
303030303011,
101011700800,
#GOGOEND
11101010,
1010101011102000,
#GOGOSTART
31201120,
1010201110102020,
1010200010102011,
1000201020101110,
1000001120000010,
1000001120102020,
1010200010102011,
1010200010102220,
11201120,
1010201010102011,
1010200010102011,
1010201011101110,
202202202200,
2022202022222020,
#GOGOEND
,
,
#GOGOSTART
3,
,
,
,
#GOGOEND
,
#END

COURSE:Normal
LEVEL:5
BALLOON:3
SCOREINIT:1690
SCOREDIFF:0
#START
32,
22,
2,
2,
02,
22,
2,
2,
32,
22,
2,
2,
02,
22,
2,
2,
31,
22,
11,
22,
11,
22,
11,
22,
1111,
1122,
1111,
1122,
11101110,
11101110,
5,
00000008,
,
0004,
#GOGOSTART
1111,
10101011,
1111,
10101110,
1111,
10101011,
1111,
10102210,
1111,
10101011,
1111,
1000100010010020,
1111,
1111,
11101110,
5008,
#GOGOEND
1112,
10101022,
1122,
10221022,
1222,
10202022,
1121,
50085008,
1112,
10101022,
1122,
50087080,
1122,
2212,
2122,
333333,
1112,
10101022,
1122,
1212,
1222,
10202022,
1121,
333333,
1112,
10101022,
1122,
2212,
1001000010010000,
1001000010010000,
5,
00000008,
32,
22,
2,
2,
#GOGOSTART
11201020,
1212,
1212,
10201022,
1212,
11201120,
1212,
1011
#GOGOEND
2022,
#GOGOSTART
11201020,
1212,
1212,
10201022,
1212,
11201120,
1212,
20204022,
11201020,
1212,
1212,
10201022,
1212,
11201120,
10201022,
1111
#GOGOEND
5080,
1110
#GOGOSTART
4020,
1212,
1212,
10201022,
1212,
10201122,
111111,
5858,
#GOGOEND
1110,
1112,
#GOGOSTART
3212,
10201022,
1212,
11201120,
10012001,
10012120,
11201020,
1212,
1212,
10201022,
1212,
11201120,
4444,
50000008,
#GOGOEND
,
,
#GOGOSTART
3,
,
,
,
#GOGOEND
,
#END

COURSE:Easy
LEVEL:4
BALLOON:150,8,8
SCOREINIT:2370
SCOREDIFF:0
#START
9,
,
,
,
,
,
,
,
,
,
,
,
,
,
,
8,
32,
2,
2,
2,
12,
2,
2,
2,
11,
11,
11,
11,
1110,
1110,
5,
00000008,
,
0004,
#GOGOSTART
1111,
1111,
1111,
1110,
1111,
1111,
1111,
1120,
1111,
1111,
1111,
1110,
1111,
1111,
33,
5008,
#GOGOEND
1012,
1012,
1022,
1022,
1012,
1012,
1022,
5008,
1012,
1012,
1022,
7008,
1012,
1012,
1022,
5008,
1012,
1012,
1022,
1210,
1012,
1012,
1022,
5008,
1012,
1012,
1022,
12,
33,
33,
5,
0008,
3,
,
,
,
#GOGOSTART
1212,
1212,
1212,
1110,
1212,
1212,
1212,
11
#GOGOEND
20,
#GOGOSTART
1212,
1212,
1212,
1110,
1212,
1212,
1212,
2240,
1212,
1212,
1212,
1110,
1212,
1212,
1212,
33
#GOGOEND
58,
11
#GOGOSTART
30,
1212,
1212,
1110,
1212,
1212,
5858,
6868,
#GOGOEND
5008,
7008,
#GOGOSTART
3212,
1110,
1212,
1212,
12,
1022,
1212,
1212,
1212,
1122,
1212,
1212,
44,
50000008,
#GOGOEND
,
,
#GOGOSTART
3,
,
,
,
#GOGOEND
,
#END
