TITLE:Yukianesa ~Azure of Ice~
SUBTITLE:--Sukima Altera
WAVE:Yukianesa ~Azure of Ice~.ogg
PREIMAGE:yukianesa.jpg
BPM:170
OFFSET:-0.004
DEMOSTART:104.474
MAKER:Komi & bol

COURSE:Edit
LEVEL:10.4
BALLOON:
SCOREINIT:640
SCOREDIFF:0
#START
100000202020100000200200100000202020100000200200,
100000202020100000200200100000202020100000200200,
100000202020100000200200100000202020100000200200,
100000202020100000200200100000202020100200200200,
100000102020100000200200100000102020100000200200,
100000102020100000100200100000102020100000100200,
100000100000100000100000101010101010100100100100,
1111201212102000,
#GOGOSTART
1110112011101120,
1210212012102120,
1120122011201220,
1022102110221212,
1220112012201120,
1210112012101120,
1120122011201220,
100000200200100000200200100100202020100100202020,
1021011210210122,
1021011210210122,
1121012211210122,
1121220211212202,
1011201120112010,
3011201120122010,
32223222,
100100200200100100200200101010200200101010200200,
#GOGOEND
1,
,
#BPMCHANGE 85
30
22,
1000
1002,
1000000000002020
2000100020000022,
10000000000000000000000010002000
20000000100000002000000020000001,
20000022
10102020,
10020201
20000012,
2002
2010,
2000
2212,
#BPMCHANGE 170
3010201011102010,
1210201011102010,
1120201011202010,
1220201012201020,
1110201011102010,
1210201011102010,
1120201011202010,
1220201012201020,
1110211011102110,
1210211011102110,
1120211011202110,
1220211012201210,
1110201011102010,
1210201012102010,
1120201011202010,
2111211122112210,
3222,
12202120,
11202020,
1021012010210120,
3222,
12202120,
11202120,
1121012012210120,
30202120,
10212120,
31120201,
3021112010212120,
1121011211210112,
100200200100000100200200100000200200100000202020,
100000100100000100100000100000100100000100101010,
1011201211102000,
#GOGOSTART
1121012011210121,
1221012012210122,
1112012011120121,
2112012121120121,
1121012011210122,
1221012012210122,
1112012022121120,
3022102211221122,
1121012011210121,
1221012012210122,
1112012011120121,
2112012121120121,
1121012011210122,
1221012012210122,
1112012021121120,
3022102210210210,
1121012011210121,
1221012012210122,
1112012011120121,
2112012121120121,
1221012012210122,
1121012011210122,
1112012022121120,
2210211022112110,
1121012011210122,
1121012111210122,
1121021012210212,
2112012121220120,
#SCROLL 0.85
1000001120000011,
1021021020112110,
#SCROLL 1
100000200100000200100200100000200100000200102020,
1110201212102000,
#GOGOEND
1011202110112022,
1011201210211120,
1011202110112022,
1011201210112210,
1011202110112022,
1011201210212120,
1011202110112022,
1011201220122210,
1011201210212212,
1022102110112012,
1011201202102012,
1011201211102012,
1010201110102012,
100100100100100100100100202020100000200200100200,
1021021010210210,
100000202010000202010000200200100200200100202020,
1,
,
#END

COURSE:Oni
LEVEL:8
BALLOON:22
SCOREINIT:840
SCOREDIFF:0
#START
1010201210102002,
1010201210102002,
1010201210102002,
1010201210102222,
1010201210102002,
1010201210102002,
11115008,
2011201110221000,
#GOGOSTART
1020102010112000,
1020102010112000,
1020102010112000,
1020102010112010,
1020102010112000,
1020102010112000,
1020102010112022,
1000300030221010,
1020102010112000,
1020102010112000,
1020102010112000,
1020102010112010,
1011200020002000,
3222,
32223222,
1111111150000080,
#GOGOEND
,
70000008,
#BPMCHANGE 85
#SCROLL 2
2111000021112000,
2111000020000020,
20101010000020202010101020000022,
2111002220202020,
2111002221112020,
2111020220000022,
2111202021112000,
20002222,
#BPMCHANGE 170
#SCROLL 1
2010101011102010,
2010101020101110,
2010101011102010,
2010201011102010,
2010101011102020,
2010201020101122,
2010101011102020,
2010201020102011,
2010101011102020,
21212121,
2010102011201020,
2010201011102020,
21112121,
2010101020101110,
2010201011102010,
2010201020112010,
#SCROLL 0.75
1111,
1111,
1111,
1000100010002222,
1111,
1111,
1111,
1000100010001111,
2111,
1000100010001111,
2000100010001111,
2000100010001111,
2003003030030030,
3003003030111010,
1011011030110111,
201020102
#SCROLL 0.78
1
#SCROLL 0.81
1
#SCROLL 0.84
1
#SCROLL 0.87
2
#SCROLL 0.9
2
#SCROLL 0.93
2
#SCROLL 0.96
2,
#SCROLL 1
#GOGOSTART
1012012010120120,
1012012010120120,
1012012020120120,
2012012020120121,
1012012010120120,
2012012020120120,
2012012020101100,
3000300030111010,
1012012010120120,
1012012010120120,
1012012020120120,
2012012020120121,
1012012010120120,
2012012020120120,
2012012020101111,
1011101110010010,
1012012010120120,
1012012010120120,
1012012020120120,
2012012020120121,
1012012010120120,
2012012020120120,
2012012020120120,
1012012010120120,
1012012010120120,
1012012010120120,
1012012020120120,
2012012020120121,
1000111020002211,
1003003040003022,
1011011030110110,
1010201021112010,
#GOGOEND
2010101011102000,
2010101020102220,
2010101011102000,
2000200011102222,
2010101011102020,
2010201020101022,
2010101011102020,
2222,
2010101011102020,
21212020,
2010101000202220,
2000200011102020,
21112121,
21112111,
2003003030030030,
2011201120112000,
3,
,
#END

COURSE:Hard
LEVEL:7
BALLOON:13
SCOREINIT:1150
SCOREDIFF:0
#START
10121012,
10121012,
10121012,
10121222,
11201120,
11211120,
11115008,
20211210,
#GOGOSTART
12121120,
12121120,
12121120,
12121211,
12121120,
12121120,
12121122,
10303211,
12121120,
12121120,
12121120,
12121121,
11202020,
3222,
3232,
50000008,
#GOGOEND
,
70000008,
#BPMCHANGE 85
#SCROLL 2
2111000021112000,
2111000020000020,
2111002221112000,
2111002220202020,
2111002221112020,
2111020220000022,
2111202021112000,
20002222,
#BPMCHANGE 170
#SCROLL 1
21111000,
21112000,
21111000,
21211021,
21110022,
21212002,
21111022,
21212121,
21110022,
21212121,
20021212,
20000022,
20002121,
21112000,
21211021,
21212121,
1111,
1111,
1111,
10101022,
1111,
1111,
1111,
10101011,
2111,
10101011,
20101011,
20101011,
20033003,
30033111,
11013101,
21212121,
#GOGOSTART
1011002010010020,
1011002010010020,
1011002020010020,
2011002020010020,
1011002010010020,
2011002020010020,
2011002020101000,
30303111,
1011002010010020,
1011002010010020,
1011002020010020,
2011002020010020,
1011002010010020,
2011002020010020,
2011002020001011,
1000101110010010,
1011002010010020,
1011002010010020,
1011002020010020,
2011002020010020,
1011002010010020,
2011002020010020,
2011002020010020,
1011002010010020,
1011002010010020,
1011002010010020,
1011002020010020,
2011002020010020,
10112021,
1001001020001020,
3003003030030030,
10212121,
#GOGOEND
20110121,
20112011,
20110011,
20002022,
20110122,
2010201020000022,
20110122,
2222,
20110122,
20112011,
21110222,
20202022,
10120121,
21102110,
3003003030030030,
21212120,
3,
,
#END

COURSE:Normal
LEVEL:5
BALLOON:10
SCOREINIT:1940
SCOREDIFF:0
#START
10201110,
10201110,
10201110,
10201111,
10201110,
10201110,
10115008,
2211,
#GOGOSTART
1112,
1112,
2222,
20202022,
2222,
1111,
20202011,
1331,
1112,
1112,
2222,
20202022,
2222,
3222,
3232,
50000008,
#GOGOEND
,
70000008,
#BPMCHANGE 85
#SCROLL 2
2022,
20002002,
20022220,
20022222,
20022222,
2002020020000020,
20222020,
20002222,
#BPMCHANGE 170
#SCROLL 1
2,
22,
2,
2002,
20000022,
2220,
20000022,
2222,
20000022,
2222,
20020202,
20000022,
2022,
22,
2,
2222,
1111,
1111,
1111,
10101011,
1111,
1111,
1111,
10101011,
1111,
10101011,
10101011,
10101011,
10011001,
10011010,
10011001,
2222,
#GOGOSTART
1111,
1111,
2222,
20202012,
1111,
2222,
2222,
30301111,
1111,
1111,
2222,
20202012,
1111,
2222,
20202011,
1000101010010010,
1111,
1111,
2222,
20202012,
1111,
2222,
2222,
3331,
1111,
1111,
2222,
20202012,
1111,
2222,
20202011,
10111111,
#GOGOEND
2,
22,
2,
20000022,
20000022,
2220,
20000022,
2222,
20000022,
2222,
20020222,
20000022,
2022,
22,
2,
2222,
3,
,
#END

COURSE:Easy
LEVEL:3
BALLOON:
SCOREINIT:5100
SCOREDIFF:0
#START
11,
11,
11,
1015,
81,
11,
15,
81,
#GOGOSTART
11,
22,
22,
2022,
22,
11,
2011,
13,
11,
11,
22,
2022,
22,
32,
33,
5,
#GOGOEND
8,
,
#BPMCHANGE 85
#SCROLL 2
22,
22,
22,
22,
22,
22,
22,
2,
#BPMCHANGE 170
#SCROLL 1
2,
22,
2,
2,
2,
22,
2,
22,
2,
22,
2,
2,
2,
22,
2,
22,
1,
11,
1,
1,
1,
11,
1,
11,
1,
11,
1,
1,
11,
11,
1,
22,
#GOGOSTART
11,
1110,
22,
2220,
11,
2220,
22,
3011,
11,
1110,
22,
2220,
11,
2220,
22,
1110,
5008,
5008,
5,
0008,
5008,
5008,
5008,
5008,
5008,
5008,
5,
0008,
5008,
5008,
5008,
5008,
#GOGOEND
2,
22,
2,
2,
2,
22,
2,
22,
2,
22,
2,
2,
2,
22,
2,
22,
3,
,
#END
