TITLE:Shockwave
SUBTITLE:--Yonokid
WAVE:Shockwave.ogg
PREIMAGE:Shockwave.png
BPM:225
OFFSET:-0
DEMOSTART:87.467
SCOREMODE:2
MAKER:bol

COURSE:Oni
LEVEL:10.7
BALLOON:2
SCOREINIT:980
SCOREDIFF:0
#START
#MEASURE 8/4
#SCROLL 0.5
1010000101010010,
2020000202020000,
1010000101010010,
2020000202020000,
1010000101010010,
2020000202020000,
1010000101010010,
200000200200000200000100000100000100202020202020,
1021020102011020,
1021020102011020,
1021020102011020,
1021020102011020,
1021020102011020,
1021020102011020,
1021020102011020,
1021020102012010,
2011201120112121,
2011201121120120,
2020202120202021,
20202020202020202222222222222222,
10112010202210201021101020000000,
#GOGOSTART
100000100100100000100100200000200200200000200200200000200000200000200000200020002000200020002000,
100000101010200100202020100000101010200100100100,
100000100100100000100100200000200200200000200200200000200000200000200000200020002000200020002000,
100000000000100010001000200000100000200020002000100000100100200000100000200100200200100000000000,
100000100100100000100100200020002000200020001000200020002000200020002000200200200000100100100000,
100100101010202020202020100100100000200200100000,
100000100100100000100100200000200200200000200200200020001000200020001000200020001000200020001000,
100000100100100000100100200010001000200010001000100010001000200020002000100100100100200200200200,
#GOGOEND
1010000101010010,
2020000202020000,
1010000101010010,
2020000202020000,
100200200200100200200200100200200200100200200222,
100200200200102020202020100200200200100200220220,
100200200200100200200200100200200200100200200222,
100200200200102020202020100200200200202020101010,
200100100100200100100100200100100100200100200111,
200100100100201010101010200100100200100100220110,
200100200100200100200100200100200100200100200111,
200000200000200000200000200000200000200000200000200200200200200200200200202020202020202020202020,
102000000000200100100200000200000100200010002000,
#MEASURE 4/4
#GOGOSTART
#SCROLL 2
300334,
403040
#SCROLL 1
222222,
1011201000201120,
1011201110222050,
0000008010112020,
0010002000112000,
1111221110221022,
221221221221,
344344,
112121112121,
1011201020221020,
1111203000300060,
0008,
100000100100200000100000200020001000200200200100,
#GOGOEND
1011201110201110,
1020121011102210,
1011201110201110,
100000200000100200100000200020002000200020002000,
1011201110201110,
1020121011102210,
1011201110201110,
1020121022221111,
1011201110201110,
1020121011102210,
1011201110201110,
1020121022221110,
111212111212,
111212111212,
100020002000100020002000100200200100200200100200,
100010101000100010101000100200200100200200100200,
78
#SCROLL 2
300000,
#SCROLL 1
,
,
,
#END

COURSE:Hard
LEVEL:7
BALLOON:10
SCOREINIT:2140
SCOREDIFF:0
#START
#MEASURE 8/4
#SCROLL 0.5
1000000101010000,
1000000101010000,
1000000101010000,
1000000101010000,
1000000101010000,
1000000101010000,
1000000101010000,
2022020202002020,
1020020102001020,
1020020102001020,
1020020102001020,
1020020102002010,
1020020102001020,
1020020102001020,
1020020102001020,
1020020102012000,
20202022,
2000200020020020,
22222222,
2220222050000000,
8,
#GOGOSTART
11222022,
10221021,
11222022,
1000202011102220,
11222210,
10221021,
10222121,
10211212,
#GOGOEND
1000000101010000,
1000000101010000,
1000000101010000,
1000000101010000,
12121212,
12121212,
12121212,
12121212,
2010201020102011,
2010201020020021,
22222222,
50087008,
100000000000200000000200000200000000200020002000,
#MEASURE 4/4
#GOGOSTART
#SCROLL 1
300444,
444400,
10210120,
10210125,
00080120,
11210120,
10212120,
11210120,
122122,
344344,
30210121,
11210125,
,
0008,
#GOGOEND
10200120,
10210120,
10200120,
11210122,
10200120,
10210120,
10200120,
11210121,
10200120,
10210120,
10200120,
11210120,
100222100222,
100222100222,
2000200020020020,
1010101020020020,
3500,
,
0800,
,
#END

COURSE:Normal
LEVEL:6
BALLOON:8
SCOREINIT:3170
SCOREDIFF:0
#START
#MEASURE 8/4
#SCROLL 0.5
1000000100010000,
1000000101010000,
1000000100010000,
1000000101010000,
2000000200020000,
2000000202020000,
2000000200020000,
2002020202002020,
1020020002001020,
1020020002001020,
1020020002001020,
1020020002002010,
1020020002001020,
1020020002001020,
1020020002001020,
1020020002002000,
20202022,
2000200020020020,
22202220,
22225000,
8,
#GOGOSTART
10222000,
10002022,
10222000,
10002022,
10222220,
10002022,
10222000,
10002058,
#GOGOEND
1,
,
,
,
1111,
1111,
1111,
1111,
20202022,
2000200020020020,
22202220,
50087008,
1,
#MEASURE 4/4
#GOGOSTART
#SCROLL 1
300444,
444400,
10200120,
10220205,
00008001,
01020220,
10220201,
0012,
33,
33,
30200120,
10220205,
,
0008,
#GOGOEND
10200120,
10200120,
10200120,
10210120,
10200120,
10200120,
10200120,
10210120,
10200120,
10200120,
10200120,
10210120,
20020020,
02002020,
2000200020020020,
1000100020020020,
3500,
,
0800,
,
#END

COURSE:Easy
LEVEL:5
BALLOON:6,5
SCOREINIT:4320
SCOREDIFF:0
#START
#MEASURE 8/4
#SCROLL 0.5
1001,
1002,
1001,
1002,
1001,
1002,
1001,
7008,
1020020002000020,
1020020002000020,
1020020002000020,
1020020002000020,
1020020002000020,
1020020002000020,
1020020002000020,
1020020002002000,
2222,
2000200020020020,
2222,
22205000,
8,
#GOGOSTART
10225080,
12,
10225080,
12,
1508,
12,
10225080,
12,
#GOGOEND
1,
,
,
,
11,
11,
11,
11,
2222,
2000200020020000,
22202220,
50087008,
1,
#MEASURE 4/4
#GOGOSTART
#SCROLL 1
300333,
333300,
10111000,
20220205,
00008005,
0008,
20220202,
02,
33,
33,
30111000,
20220205,
,
0008,
#GOGOEND
1202,
1202,
1202,
1212,
1202,
1202,
1202,
1212,
1202,
1202,
1202,
1212,
20020020,
02002020,
2258,
10105008,
1500,
,
0800,
,
#END
