TITLE:TRIPLE HELIX
SUBTITLE:--Yonokid
BPM:160
WAVE:TRIPLE HELIX.ogg
OFFSET:-0.001
DEMOSTART:120.001
LYRICS:TRIPLE HELIX.vtt
MAKER:Colin & Komi

COURSE:Oni
LEVEL:9
BALLOON:10,21,2
#START
#MEASURE 4/4
10010012,
10010011,
10010012,
10010010,
1022102010201020,
1022102010201020,
1022101150008011,
2011225080100200,
1111,
12121212,
1020102010201120,
#SCROLL 2
50
#SCROLL 1
80220200221122,
#GOGOSTART
1010102
#SCROLL 1.5
50
#SCROLL 1
8201020,
1120102010221122,
1020120
#SCROLL 1.5
50
#SCROLL 1
8201020,
1012102010221122,
1122120
#SCROLL 1.5
50
#SCROLL 1
8201020,
101200
#SCROLL 1.5
50
#SCROLL 1
80122122,
1020120
#SCROLL 1.5
50
#SCROLL 1
8201020,
102210
#SCROLL 1.5
50
#SCROLL 1
80221122,
1020112210201020,
101200
#SCROLL 1.5
50
#SCROLL 1
80221122,
1020112210201020,
101200
#SCROLL 1.5
50
#SCROLL 1
80221122,
1122120
#SCROLL 1.5
50
#SCROLL 1
8201020,
101210
#SCROLL 1.5
50
#SCROLL 1
80122122,
1010120
#SCROLL 1.5
50
#SCROLL 1
8201020,
101200
#SCROLL 1.5
50
#SCROLL 1
80221122,
#GOGOEND
1022102210201020,
12121212,
1120112010201020,
1122112211221122,
1021102110201020,
12121212,
1120112010201020,
1122112211221122,
2000001120201020,
1000112020001020,
1120112011202211,
2010201202112211,
2000112020102010,
2000112020102010,
2211211202112011,
2111020202121212,
1020102210201020,
1022102010201022,
1012012001121222,
1202020201112110,
1022102010201020,
1022102010201010,
1012001012001212,
1222122210112010,
#GOGOSTART
1110111022202220,
2222111122221222,
5000801210212111,
2012005000800011,
2001205080201020,
1202021010112110,
2102102121112111,
70000008,
5000000000008022,
1122112211225080,
1012012012012210,
1122112211225080,
1010120210201122,
1020120122020121,
2220111022201222,
1020220210221122,
#GOGOEND
11022012,
11022012,
11022012,
11022012,
7,
0008,
0011221150008011,
2211225000801200,
#SCROLL 8
7800
#SCROLL 1
100010001000,
12121212,
12121212,
3000220200
#SCROLL 1.04
2
#SCROLL 1.08
2
#SCROLL 1.12
1
#SCROLL 1.16
1
#SCROLL 1.2
2
#SCROLL 1.24
2,
#SCROLL 1.28
#GOGOSTART
1010102110201020,
1120102010221122,
1020120110201020,
1012112010221122,
1122120101201020,
1012012010122122,
1020120201201020,
1122101011221122,
1020112210201020,
1012012010221122,
1020112210201020,
1012112110221122,
1122120120201020,
1012102120122122,
1010120210201020,
100100100200100000100000101010200200100100200200,
#GOGOEND
4,
#END

COURSE:Hard
LEVEL:6
BALLOON:23,21,23
#START
#MEASURE 4/4
10101011,
10101011,
10101011,
1111,
5,
00000008,
0011101020202022,
2010202000100200,
1,
0,
0,
3,
#GOGOSTART
5080201100201020,
1001005080111010,
1000220200201020,
1001005080111010,
1022020200101010,
3003005080111010,
2020220100101010,
3003006000800000,
5080201100201020,
1001005080111010,
1000220200201020,
1001005080111010,
1022020200101010,
3003005080111010,
2020220100101010,
3003006000800000,
#GOGOEND
12121012,
10221012,
1000101010001110,
1020100020222020,
12121012,
10221012,
1000101010001110,
1020100020222020,
10020011,
10020011,
1110111022202020,
2221,
10020011,
10020011,
10121012,
10121012,
10121012,
1000200020002011,
12121010,
1020102010111010,
10201120,
10201120,
1011101011001110,
10202220,
#GOGOSTART
7,
00000008,
7,
0008,
7,
00000008,
12121212,
5,
8000102010001011,
1011101010102000,
1011002022001011,
1020101110102020,
1020110100001010,
22221010,
58585080,
3000400400000000,
#GOGOEND
10020011,
10020011,
10020011,
20020010,
1111,
1111,
5,
00000008,
1,
0,
0,
3,
#GOGOSTART
5080201100201020,
1001005080111010,
1000220200201020,
1001005080111010,
1022020200101010,
3003005080111010,
2020220100101010,
3003006000800000,
5080201100201020,
1001005080111010,
1000220200201020,
1001005080111010,
1022020200101010,
3003005080111010,
2020220100101010,
3003006000800000,
#GOGOEND
4,
#END

COURSE:Normal
LEVEL:4
SCOREINIT:
SCOREDIFF:
NOTESDESIGNER1:Colin
#START
1110,
1110,
1110,
1110,
5,
0008,
05000000,
00000008,
,
,
,
3,
#GOGOSTART
1000100500800000,
5008,
1000000100000010,
1001005080000000,
1211,
10020000,
10111010,
50000008,
2120,
2120,
2120,
2120,
2120,
2120,
2120,
5008,
#GOGOEND
10111000,
10111000,
10111000,
10111000,
20222000,
20222000,
20222000,
20222000,
10020000,
10020000,
58585850,
0008,
1110,
1110,
10101110,
10101110,
1110,
1110,
1110,
1220,
2220,
2220,
2220,
2220,
#GOGOSTART
5,
0008,
5,
0008,
5,
0008,
5,
0008,
1210,
1210,
1210,
1210,
1110,
1110,
1220,
2220,
#GOGOEND
10020000,
10020000,
10020000,
10020000,
10020000,
10020000,
10020000,
10020000,
,
,
,
3,
#GOGOSTART
1000100500800000,
5008,
1000000100000010,
1001005080000000,
1211,
10020000,
10111010,
50000008,
2120,
2120,
2120,
2120,
2120,
2120,
2120,
5008,
#GOGOEND
4,
#END

COURSE:Easy
LEVEL:2
SCOREINIT:
SCOREDIFF:
NOTESDESIGNER3:Colin
#START
1010,
1,
1010,
1,
5,
0008,
05000000,
00000008,
,
,
,
3,
#GOGOSTART
1000100500800000,
5008,
1000000100000000,
10058000,
1210,
10020000,
1101,
50000008,
2020,
2,
2020,
2,
2020,
2,
2020,
5008,
#GOGOEND
1110,
1,
1110,
1,
2220,
2,
2220,
2,
10020000,
10020000,
58585850,
0008,
1010,
1,
1110,
1010,
1,
1010,
1,
1020,
2,
2,
2,
2,
#GOGOSTART
5,
0008,
5,
0008,
5,
0008,
5,
0008,
1010,
1,
1010,
1,
1010,
1,
1020,
2,
#GOGOEND
10020000,
10020000,
10020000,
10020000,
10020000,
10020000,
10020000,
10020000,
,
,
,
3,
#GOGOSTART
1000100500800000,
5008,
1000000100000000,
10058000,
1010,
1,
1010,
50000008,
2020,
2020,
2020,
2020,
2020,
2020,
2020,
5008,
#GOGOEND
4,
#END

COURSE:Edit
LEVEL:10.5
BALLOON:30
#START
#MEASURE 4/4
10010012,
10010011,
10010012,
10010010,
1022102210201120,
1022102011201120,
10001010202010101100110011001010,
2211225080201120,
#SCROLL 0.500000
11111000100000001000000010000000,
#SCROLL 0.750000
12121212,
12121212,
#SCROLL 1.000000
11111111202000200000202010102010,
#GOGOSTART
#SCROLL 1+0i
2
#SCROLL 1+0.05i
0
#SCROLL 1+0.1i
1
#SCROLL 1+0.15i
0
#SCROLL 1+0.2i
1
#SCROLL 1+0.25i
0
#SCROLL 1+0.3i
2
#SCROLL 1+0.35i
1
#SCROLL 1+0.4i
0
#SCROLL 1+0.45i
1
#SCROLL 1+0.5i
2
#SCROLL 1+0.55i
0
#SCROLL 1+0.6i
1
#SCROLL 1+0.65i
0
#SCROLL 1+0.7i
2
#SCROLL 1+0.75i
0,
#SCROLL 1+0.8i
1
#SCROLL 1+0.75i
1
#SCROLL 1+0.7i
2
#SCROLL 1+0.65i
0
#SCROLL 1+0.6i
1
#SCROLL 1+0.55i
0
#SCROLL 1+0.5i
2
#SCROLL 1+0.45i
0
#SCROLL 1+0.4i
1
#SCROLL 1+0.35i
0
#SCROLL 1+0.3i
2
#SCROLL 1+0.25i
2
#SCROLL 1+0.2i
1
#SCROLL 1+0.15i
1
#SCROLL 1+0.1i
2
#SCROLL 1+0.05i
2,
#SCROLL 1+0.0i
1
#SCROLL 1-0.05i
0
#SCROLL 1-0.1i
2
#SCROLL 1-0.15i
0
#SCROLL 1-0.2i
1
#SCROLL 1-0.25i
2
#SCROLL 1-0.3i
0
#SCROLL 1-0.35i
1
#SCROLL 1-0.4i
1
#SCROLL 1-0.45i
0
#SCROLL 1-0.5i
2
#SCROLL 1-0.55i
0
#SCROLL 1-0.6i
1
#SCROLL 1-0.65i
0
#SCROLL 1-0.7i
2
#SCROLL 1-0.75i
0,
#SCROLL 1-0.8i
1
#SCROLL 1-0.75i
0
#SCROLL 1-0.7i
1
#SCROLL 1-0.65i
2
#SCROLL 1-0.6i
1
#SCROLL 1-0.55i
0
#SCROLL 1-0.5i
2
#SCROLL 1-0.45i
0
#SCROLL 1-0.4i
1
#SCROLL 1-0.35i
0
#SCROLL 1-0.3i
1
#SCROLL 1-0.25i
2
#SCROLL 1-0.2i
1
#SCROLL 1-0.15i
1
#SCROLL 1-0.1i
2
#SCROLL 1-0.05i
2,
#SCROLL 1+0.0i
1
#SCROLL 1+0.05i
1
#SCROLL 1+0.1i
1
#SCROLL 1+0.15i
1
#SCROLL 1+0.2i
2
#SCROLL 1+0.25i
2
#SCROLL 1+0.3i
1
#SCROLL 1+0.35i
2
#SCROLL 1+0.4i
1
#SCROLL 1+0.45i
0
#SCROLL 1+0.5i
2
#SCROLL 1+0.55i
0
#SCROLL 1+0.6i
1
#SCROLL 1+0.65i
0
#SCROLL 1+0.7i
2
#SCROLL 1+0.75i
0,
#SCROLL 1+0.8i
1
#SCROLL 1+0.75i
0
#SCROLL 1+0.7i
1
#SCROLL 1+0.65i
2
#SCROLL 1+0.6i
0
#SCROLL 1+0.55i
1
#SCROLL 1+0.5i
2
#SCROLL 1+0.45i
0
#SCROLL 1+0.4i
1
#SCROLL 1+0.35i
1
#SCROLL 1+0.3i
2
#SCROLL 1+0.25i
2
#SCROLL 1+0.2i
1
#SCROLL 1+0.15i
1
#SCROLL 1+0.1i
2
#SCROLL 1+0.05i
2,
#SCROLL 1+0.0i
1
#SCROLL 1-0.05i
0
#SCROLL 1-0.1i
2
#SCROLL 1-0.15i
0
#SCROLL 1-0.2i
1
#SCROLL 1-0.25i
2
#SCROLL 1-0.3i
0
#SCROLL 1-0.35i
2
#SCROLL 1-0.4i
1
#SCROLL 1-0.45i
0
#SCROLL 1-0.5i
2
#SCROLL 1-0.55i
0
#SCROLL 1-0.6i
1
#SCROLL 1-0.65i
0
#SCROLL 1-0.7i
2
#SCROLL 1-0.75i
0,
#SCROLL 1-0.8i
1
#SCROLL 1-0.75i
0
#SCROLL 1-0.7i
2
#SCROLL 1-0.65i
2
#SCROLL 1-0.6i
1
#SCROLL 1-0.55i
0
#SCROLL 1-0.5i
2
#SCROLL 1-0.45i
0
#SCROLL 1-0.4i
1
#SCROLL 1-0.35i
0
#SCROLL 1-0.3i
2
#SCROLL 1-0.25i
2
#SCROLL 1-0.2i
1
#SCROLL 1-0.15i
1
#SCROLL 1-0.1i
2
#SCROLL 1-0.05i
2,
#SCROLL 1+0.0i
1
#SCROLL 1+0.05i
0
#SCROLL 1+0.1i
2
#SCROLL 1+0.15i
0
#SCROLL 1+0.2i
1
#SCROLL 1+0.25i
1
#SCROLL 1+0.3i
2
#SCROLL 1+0.35i
2
#SCROLL 1+0.4i
1
#SCROLL 1+0.45i
0
#SCROLL 1+0.5i
2
#SCROLL 1+0.55i
0
#SCROLL 1+0.6i
1
#SCROLL 1+0.65i
0
#SCROLL 1+0.7i
2
#SCROLL 1+0.75i
0,
#SCROLL 1+0.8i
1
#SCROLL 1+0.75i
1
#SCROLL 1+0.7i
2
#SCROLL 1+0.65i
2
#SCROLL 1+0.6i
1
#SCROLL 1+0.55i
0
#SCROLL 1+0.5i
2
#SCROLL 1+0.45i
0
#SCROLL 1+0.4i
1
#SCROLL 1+0.35i
0
#SCROLL 1+0.3i
2
#SCROLL 1+0.25i
2
#SCROLL 1+0.2i
1
#SCROLL 1+0.15i
1
#SCROLL 1+0.1i
2
#SCROLL 1+0.05i
2,
#SCROLL 1+0.0i
1
#SCROLL 1-0.05i
0
#SCROLL 1-0.1i
2
#SCROLL 1-0.15i
0
#SCROLL 1-0.2i
1
#SCROLL 1-0.25i
1
#SCROLL 1-0.3i
2
#SCROLL 1-0.35i
2
#SCROLL 1-0.4i
1
#SCROLL 1-0.45i
0
#SCROLL 1-0.5i
2
#SCROLL 1-0.55i
0
#SCROLL 1-0.6i
1
#SCROLL 1-0.65i
0
#SCROLL 1-0.7i
2
#SCROLL 1-0.75i
0,
#SCROLL 1-0.8i
1
#SCROLL 1-0.75i
1
#SCROLL 1-0.7i
2
#SCROLL 1-0.65i
1
#SCROLL 1-0.6i
1
#SCROLL 1-0.55i
0
#SCROLL 1-0.5i
2
#SCROLL 1-0.45i
0
#SCROLL 1-0.4i
1
#SCROLL 1-0.35i
0
#SCROLL 1-0.3i
2
#SCROLL 1-0.25i
2
#SCROLL 1-0.2i
1
#SCROLL 1-0.15i
1
#SCROLL 1-0.1i
2
#SCROLL 1-0.05i
2,
#SCROLL 1+0.0i
1
#SCROLL 1+0.05i
1
#SCROLL 1+0.1i
2
#SCROLL 1+0.15i
2
#SCROLL 1+0.2i
1
#SCROLL 1+0.25i
2
#SCROLL 1+0.3i
0
#SCROLL 1+0.35i
2
#SCROLL 1+0.4i
1
#SCROLL 1+0.45i
0
#SCROLL 1+0.5i
2
#SCROLL 1+0.55i
2
#SCROLL 1+0.6i
1
#SCROLL 1+0.65i
1
#SCROLL 1+0.7i
2
#SCROLL 1+0.75i
0,
#SCROLL 1+0.8i
1
#SCROLL 1+0.75i
0
#SCROLL 1+0.7i
2
#SCROLL 1+0.65i
1
#SCROLL 1+0.6i
1
#SCROLL 1+0.55i
0
#SCROLL 1+0.5i
2
#SCROLL 1+0.45i
0
#SCROLL 1+0.4i
1
#SCROLL 1+0.35i
0
#SCROLL 1+0.3i
1
#SCROLL 1+0.25i
1
#SCROLL 1+0.2i
2
#SCROLL 1+0.15i
1
#SCROLL 1+0.1i
2
#SCROLL 1+0.05i
2,
#SCROLL 1+0.0i
1
#SCROLL 1-0.05i
0
#SCROLL 1-0.1i
1
#SCROLL 1-0.15i
0
#SCROLL 1-0.2i
2
#SCROLL 1-0.25i
2
#SCROLL 1-0.3i
1
#SCROLL 1-0.35i
2
#SCROLL 1-0.4i
1
#SCROLL 1-0.45i
0
#SCROLL 1-0.5i
2
#SCROLL 1-0.55i
0
#SCROLL 1-0.6i
1
#SCROLL 1-0.65i
0
#SCROLL 1-0.7i
2
#SCROLL 1-0.75i
0,
#SCROLL 1-0.8i
1
#SCROLL 1-0.75i
1
#SCROLL 1-0.7i
2
#SCROLL 1-0.65i
1
#SCROLL 1-0.6i
1
#SCROLL 1-0.55i
0
#SCROLL 1-0.5i
2
#SCROLL 1-0.45i
0
#SCROLL 1-0.4i
1
#SCROLL 1-0.35i
0
#SCROLL 1-0.3i
2
#SCROLL 1-0.25i
2
#SCROLL 1-0.2i
1
#SCROLL 1-0.15i
1
#SCROLL 1-0.1i
1
#SCROLL 1-0.05i
1,
#GOGOEND
#SCROLL 1
1022102210201120,
1022102210201120,
1120102210221120,
1122112211221122,
1120112010201120,
1020112010221022,
1020112010221020,
1022102011221120,
2000001120221120,
1000001120221120,
1120112011202211,
2010201202112212,
1120221120201122,
1020221120201022,
1222121202121212,
1122120202221212,
1020112210201120,
1122102010221011,
1012112011121222,
1202020201111110,
1022112011201020,
1022112011201010,
1012102011201212,
100200200200100200200200100000101010200200100000,
#GOGOSTART
2211221122112211,
2222111122221222,
5000802210221121,
100000200100200000100200101010200000100000200200,
1021102011201020,
1211121011221212,
1121121121112111,
211211211211211211211211,
5000000000008022,
100100200200200100200200100100200200102010100200,
100000100200100200200000100200100100200200102010,
100100200200100100200200100100200200102010100200,
1010121210201122,
1020212112121122,
1122112211221212,
11111111202000201000202010102010,
#GOGOEND
11022012,
11022012,
11022012,
11022012,
7,
0008,
0022112210201012,
2122121010201120,
11111000100000001000000010000000,
12121212,
12121212,
11111111202000200000202010102010,
#GOGOSTART
#SCROLL 1+0i
2
#SCROLL 1+0.075i
0
#SCROLL 1+0.15i
1
#SCROLL 1+0.225i
0
#SCROLL 1+0.3i
1
#SCROLL 1+0.375i
0
#SCROLL 1+0.45i
2
#SCROLL 1+0.525i
1
#SCROLL 1+0.6i
1
#SCROLL 1+0.675i
1
#SCROLL 1+0.75i
2
#SCROLL 1+0.825i
0
#SCROLL 1+0.9i
1
#SCROLL 1+0.975i
0
#SCROLL 1+1.05i
2
#SCROLL 1+1.125i
0,
#SCROLL 1+1.2i
1
#SCROLL 1+1.125i
1
#SCROLL 1+1.05i
2
#SCROLL 1+0.975i
0
#SCROLL 1+0.9i
1
#SCROLL 1+0.825i
0
#SCROLL 1+0.75i
2
#SCROLL 1+0.675i
0
#SCROLL 1+0.6i
1
#SCROLL 1+0.525i
0
#SCROLL 1+0.45i
2
#SCROLL 1+0.375i
2
#SCROLL 1+0.3i
1
#SCROLL 1+0.225i
1
#SCROLL 1+0.15i
2
#SCROLL 1+0.075i
2,
#SCROLL 1+0.0i
1
#SCROLL 1-0.075i
0
#SCROLL 1-0.15i
2
#SCROLL 1-0.225i
0
#SCROLL 1-0.3i
1
#SCROLL 1-0.375i
2
#SCROLL 1-0.45i
1
#SCROLL 1-0.525i
1
#SCROLL 1-0.6i
2
#SCROLL 1-0.675i
0
#SCROLL 1-0.75i
2
#SCROLL 1-0.825i
0
#SCROLL 1-0.9i
1
#SCROLL 1-0.975i
0
#SCROLL 1-1.05i
2
#SCROLL 1-1.125i
0,
#SCROLL 1-1.2i
1
#SCROLL 1-1.175i
0
#SCROLL 1-1.15i
0
#SCROLL 1-1.125i
0
#SCROLL 1-1.1i
0
#SCROLL 1-1.075i
0
#SCROLL 1-1.05i
2
#SCROLL 1-1.025i
0
#SCROLL 1-1.0i
2
#SCROLL 1-0.975i
0
#SCROLL 1-0.95i
2
#SCROLL 1-0.925i
0
#SCROLL 1-0.9i
1
#SCROLL 1-0.875i
0
#SCROLL 1-0.85i
0
#SCROLL 1-0.825i
1
#SCROLL 1-0.8i
0
#SCROLL 1-0.775i
0
#SCROLL 1-0.75i
2
#SCROLL 1-0.725i
0
#SCROLL 1-0.7i
0
#SCROLL 1-0.675i
2
#SCROLL 1-0.65i
0
#SCROLL 1-0.625i
0
#SCROLL 1-0.6i
1
#SCROLL 1-0.575i
0
#SCROLL 1-0.55i
0
#SCROLL 1-0.525i
0
#SCROLL 1-0.5i
0
#SCROLL 1-0.475i
0
#SCROLL 1-0.45i
1
#SCROLL 1-0.425i
0
#SCROLL 1-0.4i
0
#SCROLL 1-0.375i
2
#SCROLL 1-0.35i
0
#SCROLL 1-0.325i
0
#SCROLL 1-0.3i
1
#SCROLL 1-0.275i
0
#SCROLL 1-0.25i
0
#SCROLL 1-0.225i
1
#SCROLL 1-0.2i
0
#SCROLL 1-0.175i
0
#SCROLL 1-0.15i
2
#SCROLL 1-0.125i
0
#SCROLL 1-0.1i
2
#SCROLL 1-0.075i
0
#SCROLL 1-0.05i
2
#SCROLL 1-0.025i
0,
#SCROLL 1-0.0i
1
#SCROLL 1+0.075i
1
#SCROLL 1+0.15i
1
#SCROLL 1+0.225i
1
#SCROLL 1+0.3i
2
#SCROLL 1+0.375i
2
#SCROLL 1+0.45i
1
#SCROLL 1+0.525i
2
#SCROLL 1+0.6i
1
#SCROLL 1+0.675i
0
#SCROLL 1+0.75i
2
#SCROLL 1+0.825i
0
#SCROLL 1+0.9i
1
#SCROLL 1+0.975i
0
#SCROLL 1+1.05i
2
#SCROLL 1+1.125i
0,
#SCROLL 1+1.2i
1
#SCROLL 1+1.125i
0
#SCROLL 1+1.05i
1
#SCROLL 1+0.975i
2
#SCROLL 1+0.9i
1
#SCROLL 1+0.825i
0
#SCROLL 1+0.75i
2
#SCROLL 1+0.675i
0
#SCROLL 1+0.6i
1
#SCROLL 1+0.525i
1
#SCROLL 1+0.45i
1
#SCROLL 1+0.375i
1
#SCROLL 1+0.3i
2
#SCROLL 1+0.225i
2
#SCROLL 1+0.15i
2
#SCROLL 1+0.075i
2,
#SCROLL 1+0.0i
1
#SCROLL 1-0.075i
0
#SCROLL 1-0.15i
2
#SCROLL 1-0.225i
0
#SCROLL 1-0.3i
1
#SCROLL 1-0.375i
2
#SCROLL 1-0.45i
1
#SCROLL 1-0.525i
2
#SCROLL 1-0.6i
1
#SCROLL 1-0.675i
0
#SCROLL 1-0.75i
2
#SCROLL 1-0.825i
0
#SCROLL 1-0.9i
1
#SCROLL 1-0.975i
0
#SCROLL 1-1.05i
2
#SCROLL 1-1.125i
0,
#SCROLL 1-1.2i
1
#SCROLL 1-1.175i
0
#SCROLL 1-1.15i
0
#SCROLL 1-1.125i
1
#SCROLL 1-1.1i
0
#SCROLL 1-1.075i
0
#SCROLL 1-1.05i
0
#SCROLL 1-1.025i
0
#SCROLL 1-1.0i
0
#SCROLL 1-0.975i
2
#SCROLL 1-0.95i
0
#SCROLL 1-0.925i
0
#SCROLL 1-0.9i
1
#SCROLL 1-0.875i
0
#SCROLL 1-0.85i
0
#SCROLL 1-0.825i
0
#SCROLL 1-0.8i
0
#SCROLL 1-0.775i
0
#SCROLL 1-0.75i
2
#SCROLL 1-0.725i
0
#SCROLL 1-0.7i
0
#SCROLL 1-0.675i
0
#SCROLL 1-0.65i
0
#SCROLL 1-0.625i
0
#SCROLL 1-0.6i
1
#SCROLL 1-0.575i
0
#SCROLL 1-0.55i
1
#SCROLL 1-0.525i
0
#SCROLL 1-0.5i
1
#SCROLL 1-0.475i
0
#SCROLL 1-0.45i
2
#SCROLL 1-0.425i
0
#SCROLL 1-0.4i
0
#SCROLL 1-0.375i
2
#SCROLL 1-0.35i
0
#SCROLL 1-0.325i
0
#SCROLL 1-0.3i
1
#SCROLL 1-0.275i
0
#SCROLL 1-0.25i
0
#SCROLL 1-0.225i
1
#SCROLL 1-0.2i
0
#SCROLL 1-0.175i
0
#SCROLL 1-0.15i
2
#SCROLL 1-0.125i
0
#SCROLL 1-0.1i
0
#SCROLL 1-0.075i
2
#SCROLL 1-0.05i
0
#SCROLL 1-0.025i
0,
#SCROLL 1-0.0i
1
#SCROLL 1+0.075i
0
#SCROLL 1+0.15i
2
#SCROLL 1+0.225i
0
#SCROLL 1+0.3i
1
#SCROLL 1+0.375i
1
#SCROLL 1+0.45i
2
#SCROLL 1+0.525i
2
#SCROLL 1+0.6i
1
#SCROLL 1+0.675i
0
#SCROLL 1+0.75i
2
#SCROLL 1+0.825i
0
#SCROLL 1+0.9i
1
#SCROLL 1+0.975i
0
#SCROLL 1+1.05i
2
#SCROLL 1+1.125i
0,
#SCROLL 1+1.2i
1
#SCROLL 1+1.125i
1
#SCROLL 1+1.05i
2
#SCROLL 1+0.975i
2
#SCROLL 1+0.9i
1
#SCROLL 1+0.825i
0
#SCROLL 1+0.75i
2
#SCROLL 1+0.675i
0
#SCROLL 1+0.6i
1
#SCROLL 1+0.525i
0
#SCROLL 1+0.45i
2
#SCROLL 1+0.375i
2
#SCROLL 1+0.3i
1
#SCROLL 1+0.225i
1
#SCROLL 1+0.15i
2
#SCROLL 1+0.075i
2,
#SCROLL 1+0.0i
1
#SCROLL 1-0.075i
0
#SCROLL 1-0.15i
2
#SCROLL 1-0.225i
0
#SCROLL 1-0.3i
1
#SCROLL 1-0.375i
1
#SCROLL 1-0.45i
2
#SCROLL 1-0.525i
2
#SCROLL 1-0.6i
1
#SCROLL 1-0.675i
0
#SCROLL 1-0.75i
2
#SCROLL 1-0.825i
0
#SCROLL 1-0.9i
1
#SCROLL 1-0.975i
0
#SCROLL 1-1.05i
2
#SCROLL 1-1.125i
0,
#SCROLL 1-1.2i
1
#SCROLL 1-1.175i
0
#SCROLL 1-1.15i
0
#SCROLL 1-1.125i
0
#SCROLL 1-1.1i
0
#SCROLL 1-1.075i
0
#SCROLL 1-1.05i
2
#SCROLL 1-1.025i
0
#SCROLL 1-1.0i
2
#SCROLL 1-0.975i
0
#SCROLL 1-0.95i
2
#SCROLL 1-0.925i
0
#SCROLL 1-0.9i
1
#SCROLL 1-0.875i
0
#SCROLL 1-0.85i
0
#SCROLL 1-0.825i
1
#SCROLL 1-0.8i
0
#SCROLL 1-0.775i
0
#SCROLL 1-0.75i
2
#SCROLL 1-0.725i
0
#SCROLL 1-0.7i
0
#SCROLL 1-0.675i
2
#SCROLL 1-0.65i
0
#SCROLL 1-0.625i
0
#SCROLL 1-0.6i
1
#SCROLL 1-0.575i
0
#SCROLL 1-0.55i
0
#SCROLL 1-0.525i
0
#SCROLL 1-0.5i
0
#SCROLL 1-0.475i
0
#SCROLL 1-0.45i
2
#SCROLL 1-0.425i
0
#SCROLL 1-0.4i
0
#SCROLL 1-0.375i
2
#SCROLL 1-0.35i
0
#SCROLL 1-0.325i
0
#SCROLL 1-0.3i
1
#SCROLL 1-0.275i
0
#SCROLL 1-0.25i
0
#SCROLL 1-0.225i
1
#SCROLL 1-0.2i
0
#SCROLL 1-0.175i
0
#SCROLL 1-0.15i
2
#SCROLL 1-0.125i
0
#SCROLL 1-0.1i
0
#SCROLL 1-0.075i
2
#SCROLL 1-0.05i
0
#SCROLL 1-0.025i
0,
#SCROLL 1-0.0i
1
#SCROLL 1+0.075i
1
#SCROLL 1+0.15i
2
#SCROLL 1+0.225i
2
#SCROLL 1+0.3i
1
#SCROLL 1+0.375i
2
#SCROLL 1+0.45i
1
#SCROLL 1+0.525i
2
#SCROLL 1+0.6i
1
#SCROLL 1+0.675i
0
#SCROLL 1+0.75i
2
#SCROLL 1+0.825i
0
#SCROLL 1+0.9i
1
#SCROLL 1+0.975i
0
#SCROLL 1+1.05i
2
#SCROLL 1+1.125i
0,
#SCROLL 1+1.2i
1
#SCROLL 1+1.125i
1
#SCROLL 1+1.05i
2
#SCROLL 1+0.975i
1
#SCROLL 1+0.9i
1
#SCROLL 1+0.825i
0
#SCROLL 1+0.75i
2
#SCROLL 1+0.675i
0
#SCROLL 1+0.6i
1
#SCROLL 1+0.525i
0
#SCROLL 1+0.45i
1
#SCROLL 1+0.375i
1
#SCROLL 1+0.3i
2
#SCROLL 1+0.225i
1
#SCROLL 1+0.15i
2
#SCROLL 1+0.075i
2,
#SCROLL 1+0.0i
1
#SCROLL 1-0.075i
0
#SCROLL 1-0.15i
1
#SCROLL 1-0.225i
0
#SCROLL 1-0.3i
1
#SCROLL 1-0.375i
2
#SCROLL 1-0.45i
1
#SCROLL 1-0.525i
2
#SCROLL 1-0.6i
1
#SCROLL 1-0.675i
0
#SCROLL 1-0.75i
2
#SCROLL 1-0.825i
0
#SCROLL 1-0.9i
1
#SCROLL 1-0.975i
0
#SCROLL 1-1.05i
2
#SCROLL 1-1.125i
0,
#SCROLL 1-1.2i
1
#SCROLL 1-1.175i
0
#SCROLL 1-1.15i
0
#SCROLL 1-1.125i
1
#SCROLL 1-1.1i
0
#SCROLL 1-1.075i
0
#SCROLL 1-1.05i
0
#SCROLL 1-1.025i
0
#SCROLL 1-1.0i
0
#SCROLL 1-0.975i
2
#SCROLL 1-0.95i
0
#SCROLL 1-0.925i
0
#SCROLL 1-0.9i
1
#SCROLL 1-0.875i
0
#SCROLL 1-0.85i
0
#SCROLL 1-0.825i
0
#SCROLL 1-0.8i
0
#SCROLL 1-0.775i
0
#SCROLL 1-0.75i
2
#SCROLL 1-0.725i
0
#SCROLL 1-0.7i
2
#SCROLL 1-0.675i
0
#SCROLL 1-0.65i
2
#SCROLL 1-0.625i
0
#SCROLL 1-0.6i
1
#SCROLL 1-0.575i
0
#SCROLL 1-0.55i
0
#SCROLL 1-0.525i
1
#SCROLL 1-0.5i
0
#SCROLL 1-0.475i
0
#SCROLL 1-0.45i
2
#SCROLL 1-0.425i
0
#SCROLL 1-0.4i
0
#SCROLL 1-0.375i
2
#SCROLL 1-0.35i
0
#SCROLL 1-0.325i
0
#SCROLL 1-0.3i
1
#SCROLL 1-0.275i
0
#SCROLL 1-0.25i
0
#SCROLL 1-0.225i
1
#SCROLL 1-0.2i
0
#SCROLL 1-0.175i
0
#SCROLL 1-0.15i
1
#SCROLL 1-0.125i
0
#SCROLL 1-0.1i
0
#SCROLL 1-0.075i
1
#SCROLL 1-0.05i
0
#SCROLL 1-0.025i
0,
#GOGOEND
#SCROLL 13.954
G,
#END
