TITLE:Memory
SUBTITLE:--Taichenko
PREIMAGE:Memory.png
BPM:165
WAVE:Memory.ogg
OFFSET:-2.900
SONGVOL:100
SEVOL:100
DEMOSTART:27.63
MAKER:Taichenko_oni & Komi
SCOREMODE:2

COURSE:Edit
LEVEL:11.2
BALLOON:
#START
#MEASURE 4/4
#SCROLL 0.750000
1021,
0021200012100010,
21110111,
21112211,
21112010,
2121,
22112010,
2121,
#SCROLL 0.780000
200000100100
#SCROLL 0.810000
200000200200
#SCROLL 0.840000
100100202020
#SCROLL 0.870000
100100100100,
#SCROLL 0.900000
200000202020
#SCROLL 0.930000
100100202020
#SCROLL 0.960000
100100200200
#SCROLL 0.990000
100200100200,
#SCROLL 1.020000
100000200200
#SCROLL 1.050000
100100202020
#SCROLL 1.080000
100100200100
#SCROLL 1.110000
200100200000,
#SCROLL 1.140000
100000200100
#SCROLL 1.170000
200000201010
#SCROLL 1.210000
200000202020
#SCROLL 1.240000
100100202020,
#SCROLL 1.270000
1010101120101010,
0021201040104030,
20201110202011102020102020222010,
20201110202011102020102020222010,
#SCROLL 2.000000
200010001000200010001000200000000000200020002000100000000000200020002000100100100100100000100000,
#SCROLL 0.750000
2011011000111010,
1011011000101010,
2011011000111010,
1011011000111010,
2011011000111010,
1011011000111010,
2011011000101010,
100111100100000100
#SCROLL 10.000000
400000,
#SCROLL 1.000000
200000100100200100100100100000101010200000100100,
1011211010212110,
200000100100200100100100100000101010200000100000,
100000101010200100100000100100100000200000100000,
200000100100200100100100100000101010200000100000,
100000100100200100100000100100101010200000100200,
200000202020200000200200200000200000200000101010,
200000101010200000101010200000101010200200200200,
1001101000112211,
2001101020102010,
2012101010102011,
0210220120212121,
2001101020102011,
200100200100200000100000200000101010100000100000,
200100100100200100100100200100202020100200200200,
1222111221222222,
1001101000112211,
20001110100011002220100020001010,
20001020100010001000100020001110,
00211000212000112000201020102010,
20001110100010002220100020001010,
200000100000200000100000200000000000100000100100200000000000100010001000200000100000100000100000,
200100100100200100100100200100202020100200100100,
#SCROLL 1.050000
20111010201110102011101020111010,
#SCROLL 1.000000
20002020200020002220200020202020,
20002000200020202220200020202000,
20002000200020202220200020202020,
20002000202020202220200020002020,
20002000200020202220200022202000,
2020202222202022,
20002000200020202220200020202020,
20002000200020202220200020002020,
1022202112202121,
2020202212201111,
2020202212201111,
20002000102010201110201110201110,
2010101212201222,
1020102212201022,
20102010201020202220201020102010,
20102010201020202220201020102020,
0,
#SCROLL 2.000000
201010201010200000202020100000202020100100100100,
#SCROLL 1.000000
#GOGOSTART
200000101010100100200100200000101010100100200100,
200000100000100000200000100000100200100000100000200000000000200010001000200000000000200020002000,
10002020100010102000111020101010,
20201110202011201010222010102210,
200000101010100100200100200000101010200000202010,
200111200221200211200222,
100000000000200000200000100000000000100000100000200020002000100100100000200000100000100000100000,
#SCROLL 1.500000
#GOGOEND
3000300030303333,
#SCROLL 1.000000
#GOGOSTART
200000101010100100200100200000101010100100200100,
200000100000100000200000100000100200100000100000200000000000200010001000200000000000200020002000,
10002020100010102000111020101010,
20201110202011201010222010102210,
200000101010100100200100200000101010200000202010,
200111200221200211200222,
100000000000200000200000100000000000100000100000200020002000100100100000200000100000100000100000,
#SCROLL 1.500000
#GOGOEND
3000300030303333,
#SCROLL 1.000000
#GOGOSTART
2112211222121212,
11101011101011101010102020201020,
100100100200200100201010200100201010200200100100,
20201110202011201010222010102210,
2112211222121212,
22201022201022202020201010201020,
100100100200200100201010200100201010200200100100,
#SCROLL 0.750000
#GOGOEND
2102102111212122,
#SCROLL 1.000000
#GOGOSTART
2112211222121212,
11101011101011101010102020201020,
100100100200200100201010200100201010200200100100,
20201110202011201010222010102210,
2112211222121212,
22201022201022202020201010201020,
100100100200200100201010200100201010200200100100,
#SCROLL 0.750000
#GOGOEND
2102102101112211,
2000202002202020,
0220202020002002,
2000202002002020,
000200200000200000200000200000000000200000101010,
2011202102202102,
0220202021102012,
2011202102112002,
000200200100200000200000200000100100200000101010,
#SCROLL 1.500000
4,
#END

COURSE:Oni
LEVEL:10.4
BALLOON:13
SCOREINIT:
SCOREDIFF:
#START
#BPMCHANGE 165
#SCROLL 0.8
3021,
0022200022200010,
10210121,
01211211,
30210210,
20122010,
10210210,
20122010,
#SCROLL 1
1022102210201022,
1021102012221020,
1021201120102010,
0021201122102010,
3000202220202020,
0022202030303030,
#GOGOSTART
1202012021012112,
1202021021012111,
#GOGOEND
#MEASURE 1/16
#SCROLL 3
5,
#SCROLL 2.9
0,
#SCROLL 2.8
0,
#SCROLL 2.7
0,
#SCROLL 2.6
0,
#SCROLL 2.5
0,
#SCROLL 2.4
0,
#SCROLL 2.3
0,
#SCROLL 2.2
0,
#SCROLL 2.2
0,
#SCROLL 2.1
0,
#SCROLL 2
0,
#SCROLL 1.9
8,
#SCROLL 2
0,
#SCROLL 3
0,
#SCROLL 4
0,
#MEASURE 1/1
#SCROLL 0.9
1022001000201020,
1021001000202020,
1012001000201020,
1021002000102020,
1012001000211020,
1021001000202020,
1022001000201020,
11210140,
#SCROLL 1
#GOGOSTART
1011201121102022,
1021202121102012,
1011201121102022,
1022102011102000,
1001201101112012,
1021021022102022,
1021102011102010,
3040304030202222,
#GOGOEND
1001201000112222,
100000000100200000100000200200100000200000101010,
1001201021102021,
0120210122102000,
300000000000200000000100100000100000200000101010,
2001201022102010,
2211201222102022,
100000200100200000101010100000200000200200200200,
#GOGOSTART
1011201202102122,
100000200100000200100100200200100000200200101010,
1022102121102021,
000100200000200100000100200000101010200000202020,
1021021022102012,
1010201120112010,
2111201122102011,
2211221121112112,
#GOGOEND
1000201110201212,
1010201120102022,
1000201210201212,
1010201122102022,
1000201122221011,
2022111120112022,
1000201110201212,
1010201120102022,
1000201110201212,
1010201122102222,
1000201110201212,
1010201121121121,
1010201120102211,
2011201020102211,
1000201210201212,
1010201122112211,
1,
#MEASURE 1/16
#SCROLL 3
7,
#SCROLL 2.9
0,
#SCROLL 2.8
0,
#SCROLL 2.7
0,
#SCROLL 2.6
0,
#SCROLL 2.5
0,
#SCROLL 2.4
0,
#SCROLL 2.3
0,
#SCROLL 2.2
0,
#SCROLL 2.2
0,
#SCROLL 2.1
0,
#SCROLL 2
0,
#SCROLL 1.9
8,
#SCROLL 2
0,
#SCROLL 3
0,
#SCROLL 4
0,
#MEASURE 1/1
#SCROLL 1
#GOGOSTART
1022102212021022,
1021201121012022,
1001201111012010,
2112112122112111,
100000100100200000100100100100000100200000101010,
1001201022102010,
1002102212021020,
#GOGOEND
3000300010101111,
#GOGOSTART
1022102212021022,
1021102112021022,
1001201121012011,
2112112122112111,
100000100100200000100200100100000100200000101010,
1001201022102010,
1011201121012010,
#GOGOEND
3000300011111111,
#GOGOSTART
2112112122112111,
2112112112212012,
1121121121112211,
2112112111212012,
1122122211212112,
2212212122112012,
1112221212212211,
#GOGOEND
2101201110102222,
#GOGOSTART
2112112122112111,
2112112112212112,
1121121121112211,
2112112111212212,
1122122211212112,
2212212122112212,
1112221212212211,
#GOGOEND
2101201101112222,
1000202002002020,
000200200000200000200000400000000000400000202020,
2000202002002020,
000200200000200000200000400000000000400000202020,
2000202002002002,
000200200000200000200000400000000000400000202020,
2000202002002002,
0220202040004000,
3,
#END

COURSE:Hard
LEVEL:8
BALLOON:
#START
#MEASURE 4/4
#SCROLL 0.750000
1021,
02101201,
21110111,
21112211,
21112010,
2121,
22112010,
2121,
#SCROLL 1.000000
21220211,
22121221,
1020102220102010,
0022201110201020,
1010102220101010,
0011101040104030,
2022202020222020,
2022202020222020,
#SCROLL 2.000000
5000000000000008,
#SCROLL 0.750000
2001001000101010,
1001001000101010,
2001001000101010,
1001001000101010,
2001001000101010,
1001001000101010,
2001001000101010,
11110140,
#SCROLL 1.000000
2001201000102010,
1001201000202010,
2001201000102010,
11210120,
2001201000102010,
1001201000102010,
2020202220002010,
2010201020102222,
2001101000102220,
2001101020102010,
2022201010102011,
0220110220202220,
2001101020002000,
21212121,
1110101011102020,
2220101022201010,
1001101000102220,
2011101022202010,
2010101010102011,
0210220120202220,
2001101011102011,
1020201020222010,
1110101011102020,
2220101022201010,
2022202022202022,
2020202220202220,
2020202220202220,
2020222022202022,
2020202220202220,
2020202220202022,
2020202220202220,
2020202220202022,
2022202010202220,
2020202202201110,
2020202202201110,
2020101011011022,
21111212,
1020102202201022,
2020202220202020,
2020202220202022,
0,
#SCROLL 2.000000
500000000080
#SCROLL 1.000000
1110,
#GOGOSTART
2011102020111020,
21112122,
1011102220102010,
1110222011102220,
2011102020111010,
21212122,
1011101020111010,
#GOGOEND
3000300030301110,
#GOGOSTART
2011102020111020,
21112122,
1011102220102010,
1110222011102220,
2011102020111010,
21212122,
1011101020111010,
#GOGOEND
3000300030301110,
#GOGOSTART
2011101020111010,
2011101020102010,
2022202020222010,
1110222011102220,
2011101020111010,
2011101020102010,
2022202020222010,
#GOGOEND
1102201101101110,
#GOGOSTART
2011101020111010,
2011101020102010,
2022202020222010,
1110222011102220,
2011101020111010,
2011101020102010,
2022202020222010,
#GOGOEND
1102201101101110,
2000202002002020,
0200202020002000,
2000202002002020,
0200202020002000,
2000202002202002,
0220202020002000,
2000202002002002,
0220202020002000,
4,
#END

COURSE:Normal
LEVEL:4
BALLOON:22
#START
#MEASURE 4/4
#SCROLL 0.750000
1001,
00000001,
10000100,
01001011,
10010010,
0101,
10010010,
0101,
#SCROLL 1.000000
20000222,
20000222,
20000222,
00000222,
2,
0044,
7,
00000008,
50000008,
#SCROLL 0.750000
1,
00000001,
2,
00000001,
2,
00000001,
2,
0004,
#SCROLL 1.000000
1202,
00200021,
2202,
00200021,
2202,
00200021,
2202,
00202042,
20000222,
2022,
2022,
00000222,
2022,
2022,
1112,
2121,
20000222,
2022,
20002021,
0100100100202020,
2022,
2022,
1112,
2121,
5858,
1111,
5858,
1111,
5858,
1111,
5858,
1111,
5858,
1111,
5858,
1111,
5858,
1111,
5858,
10101111,
0,
50000081,
#GOGOSTART
20022002,
2122,
1122,
50000008,
20222010,
20102220,
10012001,
#GOGOEND
20303310,
#GOGOSTART
20022002,
2122,
1122,
50000008,
20222010,
20102220,
10012001,
#GOGOEND
20303310,
#GOGOSTART
50085008,
50081011,
10202220,
50000008,
50085008,
50081011,
10202220,
#GOGOEND
2002002005000080,
#GOGOSTART
50085008,
50081011,
10202220,
50000008,
50085008,
50081011,
10202220,
#GOGOEND
2002002005000080,
2,
00222000,
2,
00222000,
2,
00222000,
2,
00222000,
4,
#END

COURSE:Easy
LEVEL:2
BALLOON:22
#START
#MEASURE 4/4
1001,
0,
10000100,
01,
1001,
0100,
1001,
0100,
2,
2002,
2002,
2002,
2,
04,
7,
00000008,
50000008,
2,
0,
2,
0,
2,
0,
2,
0004,
2202,
0202,
2202,
0202,
2202,
0202,
2202,
0224,
2002,
22,
22,
0002,
22,
22,
11,
22,
2002,
22,
22,
0002,
22,
22,
11,
22,
5858,
5008,
5858,
5008,
5858,
5008,
5858,
5008,
5858,
5008,
5858,
5008,
5858,
5008,
5858,
1011,
2,
5008,
#GOGOSTART
22,
1110,
12,
5008,
2220,
2011,
12,
#GOGOEND
2,
#GOGOSTART
22,
1110,
12,
5008,
2220,
2011,
12,
#GOGOEND
2,
#GOGOSTART
11,
11,
22,
5008,
11,
11,
22,
#GOGOEND
2,
#GOGOSTART
11,
11,
22,
5008,
11,
11,
22,
#GOGOEND
2,
0,
0,
0,
0,
0,
0,
0,
0,
4,
#END
