TITLE:Pixelated Angel
SUBTITLE:--TFD500
BPM:135
WAVE:Pixelated Angel.ogg
OFFSET:-0
DEMOSTART:56.888
SCOREMODE:2
MAKER:bol

COURSE:Oni
LEVEL:10.0
BALLOON:1
SCOREINIT:700
SCOREDIFF:0
#START
1002120010001000,
1002102010205080,
1002120010001000,
1002102012212010,
1002120010001000,
1020102011205080,
1002120010001000,
1020102012221020,
1000
#SCROLL 1.14
200
#SCROLL 1
1
#SCROLL 1.14
200020
#SCROLL 1
10
#SCROLL 1.14
20002
#SCROLL 1
100
#SCROLL 1.14
2000,
#SCROLL 1
1202102012021020,
1000
#SCROLL 1.14
200
#SCROLL 1
1
#SCROLL 1.14
200020
#SCROLL 1
10
#SCROLL 1.14
20002
#SCROLL 1
100
#SCROLL 1.14
2000,
#SCROLL 1
1202102012021222,
1000
#SCROLL 1.14
200
#SCROLL 1
1
#SCROLL 1.14
200020
#SCROLL 1
10
#SCROLL 1.14
20002
#SCROLL 1
100
#SCROLL 1.14
2000,
#SCROLL 1
1202102012021020,
1000
#SCROLL 1.14
200
#SCROLL 1
1
#SCROLL 1.14
200020
#SCROLL 1
10
#SCROLL 1.14
20002
#SCROLL 1
100
#SCROLL 1.14
2000,
#SCROLL 1
1221122112211212,
#SCROLL 1.14
1011101111011010,
#SCROLL 1
1202202012022020,
#SCROLL 1.14
2022202022022020,
#SCROLL 1
2202102022021222,
#SCROLL 1.14
1011101111011010,
#SCROLL 1
1202202012022020,
#SCROLL 1.14
2022202022022020,
#SCROLL 1
10020020100020001020002010100020,
1121102012021022,
1102102012021120,
1121102012021022,
1102102012021122,
1121102012021022,
1102102012021120,
1121102012021022,
10020020010212
#SCROLL 2.5
78,
#SCROLL 1.25
#GOGOSTART
1121102012021022,
1102102012021220,
1121102012021022,
1102102022112122,
1121102012021022,
1102102012021120,
1121102012021022,
#MEASURE 3/4
110210201202,
#SCROLL 64
#BARLINEOFF
#BPMCHANGE 8.4375
#MEASURE 1/64
3,
#GOGOEND
#SCROLL 1
#BARLINEON
#BPMCHANGE 135
#MEASURE 4/4
1201201102011020,
1201201102021122,
1201201102011020,
1201201120201202,
10202010202010202012202020221020,
10202010202010202012202020221020,
10202010202010202010202010112020,
1221221220201202,
1220201112202011,
1220201120120120,
1220201112202011,
1220201120120120,
1201120112011201,
100200200100200200100100200200200200202010202010,
#GOGOSTART
#SCROLL 1.33
3002322032023022,
3002322030223020,
3002322032023022,
3221421041023222,
3002322032023022,
3002322030223020,
3002322032023022,
3221421041214212,
3202322032023220,
#GOGOEND
#SCROLL 2.5
3333,
#GOGOSTART
#SCROLL 1.33
3202320232214212,
#GOGOEND
#SCROLL 2.5
3030300300303003,
#GOGOSTART
#SCROLL 1.33
3202322030223202,
#GOGOEND
#SCROLL 2.5
3333300033336080,
#GOGOSTART
#SCROLL 1.33
3202322030203202,
#GOGOEND
#SCROLL 1.5
300000
#SCROLL 1.25
200
#SCROLL 1.5
300000
#SCROLL 1.25
200
#SCROLL 1.5
300000
#SCROLL 2
100
#SCROLL 2.1
100
#SCROLL 2.2
100
#SCROLL 2.3
100
#SCROLL 2.4
20
#SCROLL 2.5
20
#SCROLL 2.6
20
#SCROLL 2.7
20
#SCROLL 2.8
20
#SCROLL 2.9
20,
#GOGOSTART
#SCROLL 3
300
#SCROLL 1.33
2322032023022,
3002322030223020,
3002322032023022,
3221421041023222,
3002322032023022,
3002322030223020,
3002322032023022,
3221421041214212,
#SCROLL 1.5
3002322032023022,
3002322030223020,
3002322032023022,
3221421041023222,
3002322032023022,
3002322030223020,
3002322032023022,
300200200100400200100000400100200000202020202020,
#GOGOEND
#SCROLL 0.75
1002001011012010,
1002001012012010,
1002001011012010,
1002001012122212,
1002001011012010,
1002001012012010,
1002001011012010,
1002001012122212,
#SCROLL 0.5
1002001012112000,
#BARLINEOFF
0000000000000000000000000000000000000000000000000000000000000000000000000020000000200000000200000000100000000000000000000000000000000000000000000000000000000000000000000000000000000000000000000000,
#END

COURSE:Hard
LEVEL:8
BALLOON:
SCOREINIT:1080
SCOREDIFF:0
#START
1002020010001000,
1002002000201000,
1002020010001000,
1002002002201020,
1002020010001000,
12121210,
1002020010001000,
1020002002201020,
3333,
2202001002010020,
3333,
2202001002012020,
3333,
2202001002010020,
3333,
1110111050000080,
3333,
2202202002022020,
4444,
2202202022020220,
3333,
2202202022022020,
4444,
12125080,
1002002011011020,
1002002011021020,
1002002011011020,
1002002011021020,
1002002011011020,
1002002011021020,
1002002011011020,
1002002001022220,
#GOGOSTART
1002102011011020,
1002102011021020,
1002102011011020,
1002102011021020,
1002102011011020,
1002102011021020,
1002102011011020,
#MEASURE 3/4
100210201200,
#SCROLL 8
#BARLINEOFF
#BPMCHANGE 8.4375
#MEASURE 1/64
3,
#GOGOEND
#SCROLL 1
#BARLINEON
#BPMCHANGE 135
#MEASURE 4/4
1001001002011020,
1001001002021020,
1001001002011020,
1001001020202200,
1001001002011020,
1001001002021020,
1001001002011020,
1001001020202200,
1020201110202011,
1020201110020020,
1020201110202011,
1020201110020020,
1200120012001200,
1010101011115080,
#GOGOSTART
1002102011011020,
1002102011021020,
1002102011011020,
3004004040030040,
1002102011011020,
1002102011021020,
1002102011011020,
3004004040304000,
1101111011011110,
#GOGOEND
3333,
#GOGOSTART
1101110111101110,
#GOGOEND
3030300300303000,
#GOGOSTART
1101111010111101,
#GOGOEND
1111100011115080,
#GOGOSTART
1101111010101101,
#GOGOEND
1001001011115080,
#GOGOSTART
1002102011011011,
1002102011021020,
1002102011011011,
1004004040030040,
1002102011011011,
1002102011021020,
1002102011011011,
1004004040304000,
1002102011011011,
1002102011021020,
1002102011011011,
1004004040030040,
1002102011011011,
1002102011021020,
1002102011011011,
1004004040306080,
#GOGOEND
1002001001002010,
1002001002002010,
1002001001002010,
1002001020202220,
1002001001002010,
1002001002002010,
1002001001002010,
1002001020202220,
1002001022202000,
#BARLINEOFF
0000000000000000000000000000000000000000000000000000000000000000000000000050000000000000000000000000800000000000000000000000000000000000000000000000000000000000000000000000000000000000000000000000,
#END

COURSE:Normal
LEVEL:6
BALLOON:10
SCOREINIT:1620
SCOREDIFF:0
#START
1111,
1002002000201000,
1111,
1002002000202020,
1111,
12020210,
1111,
1020002000202020,
5008,
2002001002010020,
5008,
2002001002002020,
5008,
2002001002010020,
5008,
7008,
5008,
2002002002002020,
5008,
2002002020020020,
5008,
2002002020020020,
5008,
12020210,
1002002010001020,
1002002010001020,
1002002010001020,
1002002010001020,
1002002010001020,
1002002010001020,
1002002010001020,
1002002001002020,
#GOGOSTART
1002002010001020,
1002002010001020,
1002002010001020,
1002002010001020,
1002002010001020,
1002002010001020,
1002002010001020,
#MEASURE 3/4
100200201000,
#SCROLL 8
#BARLINEOFF
#BPMCHANGE 8.4375
#MEASURE 1/64
3,
#GOGOEND
#SCROLL 1
#BARLINEON
#BPMCHANGE 135
#MEASURE 4/4
1001001000001010,
1001001000001010,
1001001000001010,
1001001020202000,
1001001001001010,
1001001001001010,
1001001001001010,
1001001020202000,
12201220,
1020200010010010,
12201220,
1020200010010010,
1111,
11115080,
#GOGOSTART
1002002001001010,
1002002001001020,
1002002001001010,
3003003040040040,
1002002001001010,
1002002001001020,
1002002001001010,
3003003040404000,
11101110,
#GOGOEND
3333,
#GOGOSTART
11101110,
#GOGOEND
3030300300303000,
#GOGOSTART
11101110,
#GOGOEND
60806008,
#GOGOSTART
11101110,
#GOGOEND
1001001050008000,
#GOGOSTART
1002002001001010,
1002002001001020,
1002002001001010,
3003003040040040,
1002002001001010,
1002002001001020,
1002002001001010,
3003003040404000,
1002002001001010,
1002002001001020,
1002002001001010,
3003003040040040,
1002002001001010,
1002002001001020,
1002002001001010,
3003003040406080,
#GOGOEND
1002001001002010,
1002001002002010,
1002001001002010,
1002001020202000,
1002001001002010,
1002001002002010,
1002001001002010,
1002001020202000,
1002001020002000,
#BARLINEOFF
0000000000000000000000000000000000000000000000000000000000000000000000000050000000000000000000000000800000000000000000000000000000000000000000000000000000000000000000000000000000000000000000000000,
#END

COURSE:Easy
LEVEL:4
BALLOON:8,2
SCOREINIT:2300
SCOREDIFF:0
#START
1111,
1111,
1111,
1111,
1111,
1111,
1111,
1111,
5008,
1111,
5008,
1111,
5008,
1111,
5008,
7008,
5008,
1111,
5008,
1111,
5008,
1111,
5008,
1111,
1112,
1112,
1112,
1122,
1112,
1112,
1112,
1,
#GOGOSTART
3333,
3333,
3333,
3333,
3333,
3333,
3333,
#MEASURE 3/4
333,
#SCROLL 8
#BARLINEOFF
#BPMCHANGE 8.4375
#MEASURE 1/64
3,
#GOGOEND
#SCROLL 1
#BARLINEON
#BPMCHANGE 135
#MEASURE 4/4
1,
1,
1,
12,
1,
1,
1,
12,
02200220,
0020200020020020,
02200220,
0020200020020020,
5800580058005800,
1158,
#GOGOSTART
3333,
3333,
3333,
6008,
3333,
3333,
3333,
6008,
5008,
#GOGOEND
3333,
#GOGOSTART
5008,
#GOGOEND
3030300300303000,
#GOGOSTART
5008,
#GOGOEND
60806008,
#GOGOSTART
5008,
#GOGOEND
3003003000007080,
#GOGOSTART
3333,
3333,
3333,
6008,
3333,
3333,
3333,
6008,
3333,
3333,
3333,
6008,
3333,
3333,
3333,
60000008,
#GOGOEND
1,
,
1,
,
1,
,
1,
,
1011,
#BARLINEOFF
0000000000000000000000000000000000000000000000000000000000000000000000000050000000000000000000000000800000000000000000000000000000000000000000000000000000000000000000000000000000000000000000000000,
#END
