TITLE:The Nostalgic Messenger
SUBTITLE:--CuZi
WAVE:TheNostalgicMessenger.ogg
BPM:172.00
OFFSET:-0.000
DEMOSTART:33.488
MAKER:Komi

COURSE:Oni
LEVEL:9
BALLOON:30
#START
#MEASURE 4/4
#SCROLL 0.500000
0,
00000121,
0,
00000121,
0,
00000212,
0,
00000212,
21112111,
21112121,
21112111,
21112121,
21112111,
21112212,
21112111,
21112212,
21212121,
21212121,
21212121,
21212121,
22222222,
22222222,
5,
00000800,
#SCROLL 1.000000
#GOGOSTART
50814050,
81304
#SCROLL 0.750000
121,
#SCROLL 1.000000
50814050,
81304
#SCROLL 0.750000
121,
#SCROLL 1.000000
50814050,
81304
#SCROLL 0.750000
212,
#SCROLL 1.000000
50814050,
81304
#SCROLL 0.750000
212,
#SCROLL 1.000000
50814050,
8010300040
#SCROLL 0.750000
112010,
#SCROLL 1.000000
50814050,
8010300040
#SCROLL 0.750000
112010,
#SCROLL 1.000000
50814050,
8010300040
#SCROLL 0.750000
201120,
#SCROLL 1.000000
50814050,
8010300040
#SCROLL 0.750000
201120,
#SCROLL 0.500000
#GOGOEND
0,
00000121,
0,
00000121,
0,
00000212,
0,
00000212,
1001011020010120,
2002012020020220,
1001011020010120,
2002012020020220,
1001011020010120,
2002012020020220,
1001011020010120,
2002012020020220,
#SCROLL 0.750000
1001021120020212,
2002022120020222,
1001021120020212,
2002022120020222,
22222222,
22222222,
5,
00008212,
#SCROLL 1.000000
#GOGOSTART
1011011020110120,
2012012020120220,
1011011020110120,
2012012020120220,
1011011020110120,
2012012020120220,
1011011020110120,
2012012020120220,
1011211020010120,
2022112020020220,
1011211020010120,
2022112020020220,
1011211020010120,
2022112020020220,
1011211020010120,
2022112020020220,
1001021120020212,
2002022120020222,
1001021120020212,
2002022120020222,
1001021120020212,
2002022120020222,
1001021120020212,
2002022120020222,
1011021120120211,
2012022110120221,
1011021120120211,
2012022110120221,
11111111,
11111111,
7,
00000008,
#GOGOEND
50814050,
81304121,
50814050,
81304121,
50814050,
81304212,
50814050,
81304212,
50814050,
81304121,
50814050,
81304121,
50814050,
81304212,
50814050,
81304212,
#END

COURSE:Hard
LEVEL:4
BALLOON:16
#START
#MEASURE 4/4
#SCROLL 0.750000
0,
00000121,
0,
00000121,
0,
00000212,
0,
00000212,
22,
20002121,
22,
20002121,
22,
20002212,
22,
20002212,
2222,
20202121,
2222,
20202121,
2222,
2222,
5,
00000800,
#SCROLL 1.000000
#GOGOSTART
50814050,
81304121,
50814050,
81304121,
50814050,
81304212,
50814050,
81304212,
50814050,
81304121,
50814050,
81304121,
50814050,
81304212,
50814050,
81304212,
#SCROLL 0.750000
#GOGOEND
0,
00000121,
0,
00000121,
0,
00000212,
0,
00000212,
1005801020058020,
2005802020058020,
1005801020058020,
2005802020058020,
1005801020058020,
2005802020058020,
1005801020058020,
2005802020058020,
1001058020020580,
2002058020020580,
1001058020020580,
2002058020020580,
2222,
2222,
5,
00008212,
#SCROLL 1.000000
#GOGOSTART
1005801020058020,
2005802020058020,
1005801020058020,
2005802020058020,
1005801020058020,
2005802020058020,
1005801020058020,
2005802020058020,
1005801020058020,
2005802020058011,
1005801020058020,
2005802020058011,
1005801020058020,
2005802020058011,
1005801020058020,
2005802020058011,
1001058020020580,
2002058020020580,
1001058020020580,
2002058020020580,
1001058020020580,
2002058020020580,
1001058020020580,
2002058020020580,
1011058020020580,
2002058020020580,
1011058020020580,
2002058020020580,
1111,
1111,
7,
00000008,
#GOGOEND
50814050,
81304121,
50814050,
81304121,
50814050,
81304212,
50814050,
81304212,
50814050,
81304121,
50814050,
81304121,
50814050,
81304212,
50814050,
81304212,
#END

COURSE:Normal
LEVEL:4
BALLOON:15
#START
#MEASURE 4/4
#SCROLL 0.750000
0,
00000102,
0,
00000102,
0,
00000201,
0,
00000201,
22,
2022,
22,
2022,
22,
2021,
22,
2021,
22,
2022,
22,
2022,
2222,
2222,
5,
00000800,
#SCROLL 1.000000
#GOGOSTART
5845,
8342,
5845,
8342,
5845,
8341,
5845,
8341,
5845,
8342,
5845,
8342,
5845,
8341,
5845,
8341,
#SCROLL 0.750000
#GOGOEND
0,
00000102,
0,
00000102,
0,
00000201,
0,
00000201,
10011001,
10022002,
10011001,
10022002,
10011001,
10022002,
10011001,
10022002,
10102200,
10102200,
10102200,
10102200,
2222,
2222,
5,
08,
#SCROLL 1.000000
#GOGOSTART
10011001,
10022002,
10011001,
10022002,
10011001,
10022002,
10011001,
10022002,
10011001,
10022002,
10011001,
10022002,
10011001,
10022002,
10011001,
10022002,
10102200,
10102200,
10102200,
10102200,
10102200,
10102200,
10102200,
10102200,
10102200,
10102200,
10102200,
10102200,
1111,
1111,
7,
00000008,
#GOGOEND
5845,
8342,
5845,
8342,
5845,
8341,
5845,
8341,
5845,
8342,
5845,
8342,
5845,
8341,
5845,
8341,
#END

COURSE:Easy
LEVEL:4
BALLOON:8
#START
#MEASURE 4/4
#SCROLL 0.750000
0,
0,
0,
0,
0,
0,
0,
0,
2,
2002,
2,
2002,
2,
2001,
1,
2002,
22,
2002,
22,
2002,
22,
22,
5,
08,
#SCROLL 1.000000
#GOGOSTART
1021,
0140,
1021,
0140,
1021,
0140,
1021,
0140,
1021,
0140,
1021,
0140,
1021,
0140,
1021,
0140,
#SCROLL 0.750000
#GOGOEND
0,
0,
0,
0,
0,
0,
0,
0,
11,
12,
11,
12,
11,
12,
11,
12,
1100,
1100,
1100,
1100,
22,
22,
5,
08,
#SCROLL 1.000000
#GOGOSTART
11,
12,
11,
12,
11,
12,
11,
12,
11,
12,
11,
12,
11,
12,
11,
12,
1101,
1101,
1101,
1101,
1101,
1101,
1101,
1102,
2202,
2202,
2202,
2201,
11,
11,
7,
0008,
#GOGOEND
1021,
0140,
1021,
0140,
1021,
0140,
1021,
0140,
1021,
0140,
1021,
0140,
1021,
0140,
1021,
0140,
#END
