TITLE:away
SUBTITLE:--rainfall
BPM:151
OFFSET:0
DEMOSTART:
WAVE:away.ogg
PREIMAGE:away_cover_image.jpg
MAKER:Megi & Komi

COURSE:Oni
LEVEL:10.1
BALLOON:
SCOREINIT:
SCOREDIFF:
NOTESDESIGNER3:Megi
#START
112112112112,
112221121112,
122122122122,
112221121212,
112112112112,
112221121112,
112112112112,
112221121112,
#SCROLL 1.1
101020101020101110222010,
112221121112,
102020102020102220202010,
101020202010102210201020,
101020101020101110222010,
112221121112,
102020102020102220202010,
101020202010102210201020,
#SCROLL 1.2
101020101020101110222210,
201110202010102010200000,
102020102020101110202010,
111221101212,
221122,
122121122121,
211212211212,
212121121211,
112112112112,
102210202010102010101120,
122122122122,
101120202010102010201110,
101110202010101110202220,
201010202010201110101020,
211211211112,
201020102010100011100010,
100020100020101110202210,
102102111221,
101122101212,
201122101212,
121212121212,
121211122112,
211211212112,
121112112112,
#SCROLL 1
112221112221,
112221111222,
111221111221,
111221111221,
111212111212,
111212111211,
121211121211,
121211121211,
#SCROLL 1.2
102102101201,
102112111222,
101201101211,
111212111212,
102102102112,
102102111222,
101202001201,
211211211211,
#SCROLL 1
112221112221,
101020202010101110202020,
111221111221,
101010202010101110202210,
111212111212,
101010201020101110201110,
121211121211,
102010201010102110221010,
#SCROLL 1.2
112112,
102101222102,
112101221201,
211121212121,
202112102122,
211111200020102020100010,
111201211201,
211121121211,
100020100020200020111020,
100020100020200010222010,
100010100010200010112010,
100010100010200010221010,
101221201221,
211121201101,
211212112211,
200020100010201110102010,
#SCROLL 0.9
5,
00000008,
#SCROLL 0.8
50000008,
1122,
#SCROLL 0.7
5,
00000008,
#SCROLL 0.6
5,
0,
0,
0,
#SCROLL 0.5
8,
#END

COURSE:Easy
LEVEL:1
BALLOON:
#START
#MEASURE 4/4
1,
0,
1,
0,
2,
0,
1,
0,
1,
0,
1,
11,
1,
0,
2,
0,
1,
1,
1,
1,
2,
2,
1,
11,
1,
0,
1,
0,
1,
1,
1,
1,
1,
1,
11,
11,
1,
0,
1,
11,
0,
0,
0,
0,
0,
0,
0,
0,
2,
0,
2,
0,
2,
0,
2,
0,
1,
0,
1,
0,
1,
0,
1,
0,
11,
1,
1,
11,
11,
0100,
11,
11,
1,
1,
1,
1,
11,
11,
1,
1,
5,
0008,
58,
1,
5,
0008,
#SCROLL 0.5
5,
0,
0,
0,
8,
#END

COURSE:Normal
LEVEL:4
BALLOON:44,44,44,44
#START
#MEASURE 4/4
5,
0008,
5,
0008,
5,
0008,
5,
0008,
5,
0008,
1,
1122,
5,
0008,
5,
0008,
1,
100100111100,
200100100111,
100200100101,
111111,
111100111100,
1111,
100111100200,
5,
0008,
5,
0008,
1212,
111100100100,
111100100100,
100111100101,
100000000111,
1,
100111100111,
100111100111,
111111,
111111,
1111,
100111100100,
0,
0,
0,
0,
0,
0,
0,
0,
5,
0008,
5,
0008,
5,
0008,
5,
0008,
7,
0008,
7,
0008,
7,
0008,
7,
0008,
211111,
1,
111100000000,
100100100111,
100111100000,
1100,
1111,
100111100111,
1,
1122,
1,
1112,
200111100111,
1111,
1111,
1111,
5,
0008,
58,
1122,
5,
0008,
#SCROLL 0.5
5,
0,
0,
0,
8,
#END

COURSE:Hard
LEVEL:7
BALLOON:77,77,77,77
#START
#MEASURE 4/4
200100100111,
200100100111,
200100100111,
200100100111,
200200200111,
200200200111,
200200200111,
200200200111,
200100100111,
200100100111,
100100100111,
1122,
200100100111,
200100100111,
200100100111,
200100100111,
1222,
100122111200,
200100100111,
100200100101,
211111,
122100122100,
1111,
100111100200,
200100100111,
200100100111,
200100100111,
200100100111,
1212,
211221100100,
211221100100,
100121100101,
200100100122,
100100100111,
100121100212,
100121100212,
121212,
121212,
101201201201,
201211200100,
0,
0,
0,
0,
0,
0,
0,
0,
200100100111,
200100100111,
200100100111,
200100100111,
200200200111,
200200200111,
200200200111,
200200200111,
7,
0008,
7,
0008,
7,
0008,
7,
0008,
212122,
1,
112100000000,
211211200211,
200211200000,
1110200000000000,
1221,
211211200211,
2111,
1122,
1111,
1112,
200221200221,
211200200200,
211200211200,
1111,
5,
0008,
58,
1122,
5,
0008,
#SCROLL 0.5
5,
0,
0,
0,
8,
#END
