TITLE:PLANETES
SUBTITLE:--SiLiS
WAVE:audio.ogg
PREIMAGE:PLANETES.png
BPM:200
OFFSET:-2.4
DEMOSTART:12
MAKER:Komi

COURSE:Oni
LEVEL:7
BALLOON:
#START
#MEASURE 4/4
21120112,
02110120,
21120212,
02112120,
21120212,
02110210,
21120212,
02112120,
#GOGOSTART
2011102000201020,
0020101022202000,
2011102000201020,
02211120,
2011102000201020,
0020101022202000,
2011102000201020,
02211122,
2011102000201020,
0020101022202000,
2011102000201010,
21212121,
2011102000201020,
0020101022202000,
2011102000201020,
02211122,
#GOGOEND
10010000,
21210000,
10010011,
20210102,
10010021,
10210021,
10011000,
11,
11221100,
11221100,
11211200,
11211200,
11211100,
11211100,
11221121,
11221010,
11211210,
0000111120000000,
12112110,
0000111120000000,
20020010,
10010010,
21212121,
2020202020202222,
20120100,
20120100,
20120200,
20210100,
10120200,
10120200,
10120100,
12,
40140140,
40140140,
40140140,
44140140,
40441440,
40441440,
1000111040400000,
41212120,
21120112,
12110120,
21120212,
12112120,
21120212,
02110210,
21120212,
02111210,
21120112,
02110120,
21120212,
02112120,
21120212,
02110210,
20202120,
2021202010101010,
#GOGOSTART
2011102000201020,
0020101022202000,
2011102000201020,
02211120,
2011102000201020,
0020101022202000,
2011102000201020,
02211122,
2011102000201020,
0020101022202220,
2011102000201010,
21212121,
4011104000221020,
4022101000202000,
4011102040201020,
42214142,
#GOGOEND
21120112,
02110120,
21120212,
02112120,
21120212,
02110210,
21120212,
02112111,
12120212,
02110120,
12120212,
12112121,
12120212,
02110210,
12120212,
02112111,
21210000,
0,
21210000,
#END

COURSE:Edit
LEVEL:10.6
BALLOON:
#START
#MEASURE 4/4
#SCROLL 0.75
21120112,
02110120,
21120212,
0020101021112221,
2011102000201020,
02110210,
2011102000201020,
002010102
#SCROLL 0.78
1
#SCROLL 0.81
1
#SCROLL 0.84
1
#SCROLL 0.87
2
#SCROLL 0.9
2
#SCROLL 0.93
2
#SCROLL 0.96
1,
#SCROLL 1
#GOGOSTART
2022101000221010,
000000200200100000100000202020200100200000200000,
2022101000221010,
200200100100200000100000202020200100200000200000,
2022101000221010,
000000200200100000100000202020200100200000200000,
2022101000221010,
200200100100200000100000202020200100202020200100,
2022101010221010,
100000200200100000100000202020200100200000200000,
2022101010221010,
200200100100200000100000202020200100202020200100,
2022101010221010,
100000200200100000100000202020200100200000200000,
2022101010221010,
200200100100200000100000202020200100202020200100,
#SCROLL 0.75
#GOGOEND
10010000,
21210000,
10010011,
20210102,
10010021,
10210021,
10011000,
11,
1011202010100000,
1011202010100000,
1011201011200000,
1011201011200000,
1011201210100000,
1011201210100000,
1011202010112010,
1011202010001000,
100100222100100222100000,
000000111111200000000000,
100222100100222100100000,
000000111111200000000000,
20020010,
10010010,
20
#SCROLL 0.8
1120
#SCROLL 0.85
1120
#SCROLL 0.9
1120
#SCROLL 0.95
11,
#SCROLL 0.96
2121
#SCROLL 0.97
2121
#SCROLL 0.98
2121
#SCROLL 0.99
2121,
#SCROLL 1
20120100,
20120100,
20120200,
20210100,
10120200,
10120200,
10120100,
12,
#SCROLL 1.2
40
#SCROLL 1
1
#SCROLL 1.2
40
#SCROLL 1
1
#SCROLL 1.2
4
#SCROLL 1
1,
#SCROLL 1.2
40
#SCROLL 1
1
#SCROLL 1.2
40
#SCROLL 1
1
#SCROLL 1.2
4
#SCROLL 1
1,
#SCROLL 1.2
40
#SCROLL 1
1
#SCROLL 1.2
40
#SCROLL 1
1
#SCROLL 1.2
4
#SCROLL 1
1,
#SCROLL 1.2
44
#SCROLL 1
1
#SCROLL 1.2
40
#SCROLL 1
1
#SCROLL 1.2
4
#SCROLL 1
1,
#SCROLL 1.2
4
#SCROLL 1
1
#SCROLL 1.2
44
#SCROLL 1
1
#SCROLL 1.2
440,
4
#SCROLL 1
1
#SCROLL 1.2
44
#SCROLL 1
1
#SCROLL 1.2
440,
#SCROLL 1
11101110
#SCROLL 1.2
4040
#SCROLL 1
1110,
#SCROLL 1.2
400000
#SCROLL 1
100100200000100100200100100100
#SCROLL 0.97
20
#SCROLL 0.98
20
#SCROLL 0.99
20
#SCROLL 1
20
#SCROLL 1.01
20
#SCROLL 1.02
20,
#SCROLL 1.03
2
#SCROLL 0.75
1120112,
12110120,
21120212,
12112120,
21120212,
02110210,
21120212,
002010101
#SCROLL 0.78
2
#SCROLL 0.81
2
#SCROLL 0.84
2
#SCROLL 0.87
1
#SCROLL 0.9
1
#SCROLL 0.93
1
#SCROLL 0.96
2,
#SCROLL 1
21120112,
02110120,
21120212,
0020101021112220,
21120212,
02110210,
200111200111200111200111,
200100200100200100200100101010101010101010101010,
#GOGOSTART
2022101010221010,
100000200200100000100000202020200100200000200000,
2022101010221010,
200200100100200000100000202020200100200000200000,
2022101010221010,
100000200200100000100000202020200100200000200000,
2022101010221010,
200200100100200000100000202020200100202020200100,
2022101010221010,
100000200200100000100000202020200100200000200000,
2022101010221010,
200200100100200000100000202020200100202020200100,
2022101010221010,
400000200200100000100000202020200100200000200000,
4022101040221010,
400000100000400000100000202020200100202020200100,
#GOGOEND
2
#SCROLL 0.92
1
#SCROLL 0.835
1
#SCROLL 0.75
20112,
02110120,
21120212,
02112120,
21120212,
02110210,
21120212,
02112111,
12120212,
02110120,
12120212,
12112121,
12120212,
02110210,
12120212,
02112111,
21210000,
0,
21210000,
#END

COURSE:Hard
LEVEL:6
BALLOON:
#START
#MEASURE 4/4
#SCROLL 0.9
20110112,
00110120,
20110112,
01111020,
20110112,
00110120,
20110112,
01111020,
#GOGOSTART
20120212,
02110220,
20120212,
01101120,
20120212,
02110220,
20120212,
01101122,
20120212,
02110220,
20120211,
20101120,
20120212,
02110220,
20120212,
01101122,
#GOGOEND
10010000,
10010000,
10010010,
20020101,
00000021,
00210021,
10010000,
11,
10220100,
10220100,
10110200,
10220200,
10120200,
10120100,
11,
11,
11210120,
04,
12110120,
04,
20020010,
10010010,
2222,
22222111,
20120100,
20120100,
20120200,
20210100,
10120200,
10120200,
10120100,
12,
40140040,
40140040,
40140040,
44040140,
40440440,
40440440,
10104400,
4222,
20110112,
00110120,
20110112,
01111020,
20110112,
00110120,
20110112,
01111020,
20110112,
01110120,
20110112,
01111020,
20110112,
01110120,
1111,
11111111,
#GOGOSTART
20120212,
02110220,
20120212,
01101120,
20120212,
02110220,
20120212,
01101122,
20120212,
02110220,
20120211,
21212121,
20120212,
02110220,
20120212,
01101122,
#GOGOEND
20110112,
00110120,
20110112,
01111020,
20110112,
00110120,
20110112,
01111020,
20110112,
00110120,
20110112,
01111020,
20110112,
00110120,
20110112,
01111020,
20020000,
0,
20020000,
#END

COURSE:Normal
LEVEL:4
BALLOON:
#START
#MEASURE 4/4
#SCROLL 0.75
10010000,
10010000,
10010000,
11,
10010020,
10010020,
10010020,
11,
#GOGOSTART
20020002,
00010020,
20020002,
0111,
20020002,
00010020,
20020002,
0111,
20020002,
00010020,
20020020,
1221,
20020002,
00010020,
20020002,
0111,
#GOGOEND
10010000,
10010000,
10010000,
11,
1,
10010000,
10010000,
11,
10010100,
10010100,
10010100,
10010100,
10010100,
10010100,
11,
11,
10010020,
04,
10010020,
04,
2,
0,
22,
2221,
20020200,
20020200,
20020200,
20020200,
20020200,
20020200,
20020200,
12,
40040040,
40040040,
40040040,
40040040,
40040040,
40040040,
10010400,
42,
10010000,
10010000,
10010000,
11,
10010000,
10010000,
10010000,
11,
10010000,
10010000,
10010000,
11,
10010020,
10010020,
50085008,
50085008,
#GOGOSTART
20020002,
00010020,
20020002,
0111,
20020002,
00010020,
20020002,
0111,
20020002,
00010020,
20020020,
1221,
20020002,
00010020,
20020002,
0111,
#GOGOEND
10010000,
10010000,
10010000,
11,
10010000,
10010000,
10010000,
11,
10010000,
10010000,
10010000,
11,
10010000,
10010000,
10010000,
11,
20020000,
0,
20020000,
#END

COURSE:Easy
LEVEL:2
BALLOON:
#START
#MEASURE 4/4
#SCROLL 0.75
1,
1,
1,
11,
1,
1,
1,
11,
#GOGOSTART
2,
2,
2,
22,
2,
2,
2,
22,
2,
2,
2,
22,
2,
2,
2,
22,
#GOGOEND
1,
1,
1,
1,
1,
1,
1,
1,
1,
1,
1,
1,
1,
1,
11,
1,
1001,
04,
1001,
04,
2,
0,
2,
2,
2,
2,
2,
2,
2,
2,
2,
11,
4,
4,
4,
4,
4,
4,
1,
42,
1,
1,
1,
11,
1,
1,
1,
11,
1,
1,
1,
11,
1,
1,
1,
11,
#GOGOSTART
2,
2,
2,
22,
2,
2,
2,
22,
2,
2,
2,
22,
2,
2,
2,
22,
#GOGOEND
1,
1,
1,
11,
1,
1,
1,
11,
1,
1,
1,
11,
1,
1,
1,
11,
2,
0,
2,
#END
