TITLE:Bounded Quietude
SUBTITLE:--SiLiS vs Finite Limit
WAVE:Bounded Quietude.ogg
PREIMAGE:Bounded Quietude.png
BPM:280
OFFSET:-1.179
DEMOSTART:55.610
MAKER:bol & Komi

COURSE:Edit
LEVEL:11.5
BALLOON:50
SCOREINIT:530
SCOREDIFF:0
#START
#SCROLL 1.5
33330033,
33003030,
44440044,
44004040,
33340033,
3400G3G4,
43430043,
4300G4G3,
#GOGOSTART
#SCROLL 1
1010201110102011,
1010201120102010,
1010201110102011,
1010201120102010,
#GOGOEND
#SCROLL 0.75
11120011,
22102020,
#SCROLL 1
#GOGOSTART
1010221210102212,
1122112211112120,
#GOGOEND
#MEASURE 8/4
#SCROLL 0.5
1202
1210,
2002
1020,
1122
2010,
10000022
10001020,
20122010
20122010,
20122010
21102011,
20211020
20221020,
1001
1020,
#MEASURE 4/4
#SCROLL 0.75
20122012,
10212012,
20121022,
10112012,
10112122,
10112112,
10221020,
11212210,
30212010,
10212022,
10212010,
10212022,
10221020,
11201020,
221221221221,
5008,
#MEASURE 8/4
#SCROLL 0.5
10222010
10212020,
10222010
10212020,
10212012
10212012,
1000201020201020
1111202010002020,
#MEASURE 4/4
#GOGOSTART
#SCROLL 1.25
30
#SCROLL 0.75
2020
#SCROLL 1.25
30
#SCROLL 0.75
2020
#SCROLL 1.25
30
#SCROLL 0.75
22,
20
#SCROLL 1.25
30
#SCROLL 0.75
2220
#SCROLL 1.25
30
#SCROLL 0.75
22
#SCROLL 1.25
30
#SCROLL 0.75
22,
#SCROLL 1.25
30
#SCROLL 0.75
2020
#SCROLL 1.25
30
#SCROLL 0.75
2020
#SCROLL 1.25
30
#SCROLL 0.75
22,
20
#SCROLL 1.25
30
#SCROLL 0.75
2220
#SCROLL 1.25
30
#SCROLL 0.75
22
#SCROLL 1.25
30
#SCROLL 0.75
22,
#GOGOEND
2020111020201110,
1010222010202220,
#SCROLL 1
30030030,
1020111120102020,
#GOGOSTART
1010201110102011,
1010201120122022,
1010201110102011,
1010201121112210,
1011202210112022,
2010201022112210,
1011202011112020,
2111211022112210,
1010201110102011,
1010201120122022,
1020202210202022,
2111211122112210,
2011201020112010,
2111201021112010,
33044044,
221221211211,
1010201110102011,
1010201120122022,
1010201110102011,
1010201121112210,
1011202210112022,
2010201022112210,
1011202011222020,
2211211021112210,
1010201110102011,
1010201120122020,
33044044,
2212221220001020,
1011202011112020,
1011211021102120,
2010201022102210,
2211221121212212,
#GOGOEND
9,
,
,
0008,
1010201110102011,
1010201120102011,
1010201110102011,
2010221022102210,
1010111020001010,
1110200022102210,
1010111020001010,
1110200022102110,
1011211020001011,
2110200022102210,
2020111020201110,
2211211121112120,
#MEASURE 8/4
#SCROLL 0.5
2201
0122,
2221
0122,
2212
2212,
1000100010102000
1111201020001020,
#MEASURE 4/4
#GOGOSTART
#SCROLL 1.25
30
#SCROLL 0.75
2020
#SCROLL 1.25
30
#SCROLL 0.75
2020
#SCROLL 1.25
30
#SCROLL 0.75
22,
20
#SCROLL 1.25
30
#SCROLL 0.75
2220
#SCROLL 1.25
30
#SCROLL 0.75
22
#SCROLL 1.25
30
#SCROLL 0.75
22,
#SCROLL 1.25
30
#SCROLL 0.75
2020
#SCROLL 1.25
30
#SCROLL 0.75
2020
#SCROLL 1.25
30
#SCROLL 0.75
22,
20
#SCROLL 1.25
30
#SCROLL 0.75
2220
#SCROLL 1.25
30
#SCROLL 0.75
22
#SCROLL 1.25
30
#SCROLL 0.75
22,
#SCROLL 0.8
30010020
#SCROLL 0.85
10010020,
#SCROLL 0.90
300000000100000000200000
#SCROLL 0.95
100010002000100020002000,
#SCROLL 1
31031031,
1111111120002020,
#GOGOEND
30000022,
32,
30000022,
32,
3122,
3022,
3002,
3022,
33,
34,
34,
G031,
34,
3142,
31032042,
2111211121112111,
#GOGOSTART
1010201110102012,
1010201120122012,
1010201110102012,
1010201121112210,
1011202210112022,
2011221021112110,
1011202011222020,
2211211121112210,
1010201110102012,
1010201110112120,
33044044,
2111221220001020,
#SCROLL 1.08
1
#SCROLL 1.06
1
#SCROLL 1.04
1
#SCROLL 1.02
1
#SCROLL 1
2
#SCROLL 0.98
1
#SCROLL 0.96
1
#SCROLL 0.94
1
#SCROLL 0.92
10
#SCROLL 1
102010,
#SCROLL 1.08
1
#SCROLL 1.06
1
#SCROLL 1.04
1
#SCROLL 1.02
1
#SCROLL 1
2
#SCROLL 0.98
1
#SCROLL 0.96
1
#SCROLL 0.94
1
#SCROLL 0.92
10
#SCROLL 1
102010,
#SCROLL 1.08
1
#SCROLL 1.06
1
#SCROLL 1.04
1
#SCROLL 1.02
1
#SCROLL 1
2
#SCROLL 0.98
1
#SCROLL 0.96
1
#SCROLL 0.94
1
#SCROLL 0.92
10
#SCROLL 1
102011,
2111211122112211,
2011201120112011,
2110211021102111,
2111111121111111,
2111211122112212,
1011201011112010,
1011201012112010,
1010101011101210,
202010100200201010200200101020200100102020100200,
#SCROLL 4
6,
#BARLINEOFF
,
,
00000008,
#SCROLL 1
2022
#GOGOEND
100000000000,
#BARLINEON
,
#END

COURSE:Oni
LEVEL:10.0
BALLOON:40
SCOREINIT:820
SCOREDIFF:0
#START
11110011,
11001010,
22220022,
22002020,
11120011,
12001020,
12120012,
12002111,
#GOGOSTART
12221012,
2020100011102010,
12221012,
2020100011102010,
#GOGOEND
11120011,
22202020,
#GOGOSTART
11211011,
2011101010112010,
#GOGOEND
#MEASURE 8/4
1202
1210,
2002
1020,
1122
2010,
1002
1012,
20122010
20122010,
20122010
20002011,
20201020
20221020,
1001
1020,
#MEASURE 4/4
2022,
10212010,
2012,
10112010,
10112020,
10002012,
1202,
00202210,
3001,
10000022,
1221,
10202022,
10221020,
1212,
211200211200,
1222,
#MEASURE 8/4
1221
1222,
1221
1222,
1221
1221,
10202010
11221022,
#MEASURE 4/4
#GOGOSTART
3002003002003002,
0030020030203020,
3002003002003002,
0030020030003000,
#GOGOEND
22112211,
11221122,
3000111000111000,
30112122,
#GOGOSTART
1010200011102010,
20102121,
2000200011102010,
2000100020102011,
2010200010111010,
20212021,
1110202010002020,
1110202010002000,
1010200011102010,
2000201110102010,
2000202210102010,
2000201120102010,
2000201020111010,
2000201020111010,
11022022,
202020102020200100200200,
1010200011102010,
20102121,
2000200011102010,
2000100020102011,
2010200010111010,
20212021,
1110202011102020,
1110202010002000,
1010200011102010,
2000201110102010,
20221121,
2000201120102010,
2000201020111010,
2000201020111010,
2000201020111010,
2011201020111111,
#GOGOEND
9,
,
,
0008,
11210011,
21001020,
11210011,
21112121,
11210011,
2010000022202220,
11210011,
2010000022202220,
11210011,
2010000022202220,
22112211,
1110202010102020,
#MEASURE 8/4
20020010
10102020,
20020010
10102020,
20020020
20201020,
1000100010102000
1110201020001020,
#MEASURE 4/4
#GOGOSTART
3002003002003002,
0030020030203020,
3002003002003002,
0030020030001010,
1001002010010020,
100000000100000000200000100010001000200020002000,
11011011,
20002022,
#GOGOEND
10000022,
12,
10000022,
12,
1122,
1022,
1002,
1022,
11,
12,
12,
1011,
12,
1122,
11012022,
50082122,
#GOGOSTART
11221122,
1000201110102020,
11221122,
1000201110102000,
2011201020002010,
1020102020002011,
11122121,
1000111020102010,
2000201110102010,
2000201010112010,
11022022,
2220111020201020,
1000211120102010,
1000211120102010,
1000211120102010,
2010201022201110,
21212121,
21212121,
5,
00000008,
11210011,
21001020,
1010101011101010,
2020202020202222,
5,
#BARLINEOFF
,
,
00000008,
2022
#GOGOEND
100000000000,
#BARLINEON
,
#END

COURSE:Hard
LEVEL:9
BALLOON:35
SCOREINIT:900
SCOREDIFF:0
#START
#SCROLL 0.85
11110011,
11001010,
11110011,
11001010,
22220022,
22002020,
22220022,
22002020,
#GOGOSTART
12221012,
22101120,
12221012,
22101120,
#GOGOEND
11110011,
11102020,
#GOGOSTART
11211121,
1110201011102010,
#GOGOEND
#MEASURE 8/4
1202
1210,
2002
1020,
1122
2010,
1000
0012,
10222000
10222000,
10222000
10222020,
2212
2212,
1001
1020,
#MEASURE 4/4
1002,
12,
1002,
12,
1122,
21,
22,
1022,
3002,
1122,
1221,
1022,
10221020,
1212,
222200222200,
5008,
#MEASURE 8/4
2221
0222,
2221
0222,
1111
2222,
10000020
11112022,
#MEASURE 4/4
#GOGOSTART
30230230,
23023030,
30230230,
23023030,
#GOGOEND
22102210,
11201120,
30030030,
1110101020202020,
#GOGOSTART
1010200011102000,
1000201011102010,
1010200011102000,
1000201011102010,
1010200011102000,
1000201011102010,
1010200011102000,
1110201011102010,
1010200011102000,
1000201011102010,
1010200011102000,
1000201011102010,
1010200011102000,
1000202011102010,
11022022,
202000202000100100200200,
10222210,
1000222020201000,
10222210,
1000222020201000,
10222210,
1000222020201000,
10222210,
1110201011102010,
1000222020201000,
1000202011102020,
30040022,
2000201022201020,
10211120,
1000201011102020,
21212121,
43434343,
#GOGOEND
9,
,
,
0008,
11110011,
11002020,
11110011,
11112210,
11111011,
1010100022202000,
11111011,
1010100022202000,
11111011,
1010100022202000,
22202220,
5082,
#MEASURE 8/4
2201
0222,
2221
0222,
2212
2212,
1000000010002000
1110201020001020,
#MEASURE 4/4
#GOGOSTART
30230230,
23023030,
30230230,
23023030,
1001001020020020,
100000000100000000100000200020002000200020002000,
30030030,
44,
#GOGOEND
10000022,
12,
10000022,
12,
1122,
12,
1002,
1022,
11,
12,
12,
1011,
12,
1122,
11012022,
50082020,
#GOGOSTART
10221210,
1000222010201000,
10221210,
1000222010201000,
10221210,
1000222010201000,
10221210,
1110201011102010,
1000222010201000,
1000202011102020,
30040022,
2000201022201020,
10211120,
1000201011102020,
10211120,
1000201011102020,
21212121,
21212121,
5,
00000008,
11110011,
11001020,
11111111,
2020202020202220,
5,
#BARLINEOFF
,
,
00000008,
2011
#GOGOEND
100000000000,
#BARLINEON
,
#END

COURSE:Normal
LEVEL:8
BALLOON:30,4,4
SCOREINIT:1160
SCOREDIFF:0
#START
#SCROLL 0.5
11110011,
11001010,
11110011,
11001010,
22220022,
22002020,
22220022,
22002020,
#GOGOSTART
10221010,
22101020,
10221010,
22101120,
#GOGOEND
11110011,
11102020,
#GOGOSTART
11201120,
11211121,
#GOGOEND
#MEASURE 8/4
2202
2220,
2002
2020,
2222
2020,
2000
0022,
2002
2222,
2020
2022,
2222
2222,
1001
1022,
#MEASURE 4/4
1002,
12,
1002,
12,
1122,
21,
22,
1022,
3002,
1122,
1221,
1022,
2221,
2212,
22202220,
5008,
#MEASURE 8/4
2221
0022,
2221
0022,
1110
2220,
10000020
11102020,
#MEASURE 4/4
#GOGOSTART
30030030,
03003030,
30030030,
03003030,
#GOGOEND
22202220,
11102220,
30030030,
5822,
#GOGOSTART
10201120,
10211120,
10201120,
10211120,
11201220,
22202000,
5,
0822,
10201120,
10211120,
11102220,
22201110,
10201120,
10211120,
30040040,
40301120,
10221010,
10222210,
10221010,
10222210,
10221010,
10222210,
10221010,
11201120,
10221010,
10221120,
30040040,
4012,
10201120,
10211120,
2222,
4444,
#GOGOEND
9,
,
,
0008,
11110011,
11002020,
11110011,
11002220,
11011011,
01102020,
11011011,
01102020,
11011011,
01102020,
20202220,
5082,
#MEASURE 8/4
2201
0222,
2221
0222,
2212
2212,
10001020
11102220,
#MEASURE 4/4
#GOGOSTART
30030030,
03003030,
30030030,
03003030,
5868,
7898,
30030030,
44,
#GOGOEND
10000022,
21,
10000022,
21,
1122,
1022,
1002,
1022,
11,
12,
12,
1121,
12,
1122,
30040040,
5822,
#GOGOSTART
10221010,
10222210,
10221010,
10222210,
10221010,
10222210,
10221010,
11201120,
10221010,
10221120,
30040040,
4012,
10201120,
10211120,
10201120,
11201120,
2222,
4444,
5,
0008,
11110011,
11001020,
11101110,
22222222,
5,
#BARLINEOFF
,
,
0008,
11
#GOGOEND
100000,
#BARLINEON
,
#END

COURSE:Easy
LEVEL:7
BALLOON:3,25,20
SCOREINIT:1840
SCOREDIFF:0
#START
#SCROLL 0.5
10010010,
01001010,
10010010,
01001010,
20020020,
02002020,
20020020,
02002020,
#GOGOSTART
10010020,
1212,
10010020,
1212,
#GOGOEND
1,
1011,
#GOGOSTART
3333,
6008,
#GOGOEND
#MEASURE 8/4
2
2,
2
2,
2022
2020,
2000
0022,
2002
2022,
2020
2022,
2022
2022,
1001
1000,
#MEASURE 4/4
1001,
1020,
1001,
1020,
1120,
2010,
2,
1,
3,
3,
3,
3022,
2022,
2022,
5,
0008,
#MEASURE 8/4
1002
2000,
1002
2020,
1002
2020,
1002
2022,
#MEASURE 4/4
#GOGOSTART
3003,
0033,
3003,
0033,
#GOGOEND
2222,
1111,
30030030,
3020,
#GOGOSTART
10000011,
12,
10000011,
12,
1122,
12,
5,
0822,
10000011,
12,
22,
2211,
5,
8222,
30040040,
78,
10000011,
12,
10000011,
12,
1122,
1221,
5,
8222,
1002,
1122,
30040040,
4012,
31,
42,
2222,
4444,
#GOGOEND
9,
,
,
0008,
10010010,
01002020,
10010010,
01002020,
10110010,
11002020,
10110010,
11002020,
10110010,
11002020,
2022,
5082,
#MEASURE 8/4
2001
0222,
2001
0222,
21
21,
2012
1022,
#MEASURE 4/4
#GOGOSTART
3003,
0033,
3003,
0033,
5858,
6868,
30030030,
4,
#GOGOEND
1002,
2010,
1002,
2010,
1020,
1020,
1,
12,
1,
12,
12,
1021,
1,
1022,
30040040,
3022,
#GOGOSTART
10102011,
1122,
10102011,
1122,
1122,
22202010,
5,
8222,
10002011,
1122,
30040040,
4012,
31,
42,
1111,
5008,
2222,
4444,
31,
42,
9,
,
,
8,
5,
#BARLINEOFF
,
,
0008,
11
#GOGOEND
100000,
#BARLINEON
,
#END
