TITLE:Heating Up
SUBTITLE:--FCN
BPM:140
WAVE:Heating Up.ogg
OFFSET:0
DEMOSTART:27.4286
MAKER:Shoxk

COURSE:Easy
LEVEL:4
SCOREINIT:
SCOREDIFF:
NOTESDESIGNER0:Shoxk
#START
2020,
2,
2,
2,
2020,
2,
2,
2,
1111,
1111,
1111,
1111,
3333,
3333,
3333,
5008,
#GOGOSTART
1212,
1010,
1212,
1010,
1212,
1010,
1212,
1010,
1212,
1210,
1212,
1110,
1212,
1210,
1212,
1110,
#GOGOEND
3,
,
1,
1,
3,
,
1,
1,
1111,
1111,
1111,
1111,
3444,
4444,
5,
0008,
#GOGOSTART
3012,
1212,
3012,
1230,
3012,
1230,
1212,
5008,
3212,
1210,
1212,
1110,
1212,
1210,
1212,
1110,
#GOGOEND
3,
#END

COURSE:Normal
LEVEL:5
BALLOON:7
SCOREINIT:
SCOREDIFF:
NOTESDESIGNER1:Shoxk
#START
1022,
,
1022,
,
1222,
,
1222,
,
1111,
10101012,
1111,
10101012,
1111,
10101012,
1111,
5008,
#GOGOSTART
10001120,
10001120,
10001120,
10001122,
10001120,
10001120,
10001120,
10001120,
30201120,
10001120,
10201120,
10001122,
10201120,
10001120,
10201120,
10201120,
#GOGOEND
3020,
2020,
1,
,
1020,
2020,
1,
,
10101012,
10101012,
10101012,
10101012,
10111011,
10111011,
1212,
7008,
#GOGOSTART
3232,
3232,
3232,
30203022,
3232,
3232,
3232,
30201221,
30201120,
10201122,
10201120,
10201121,
10201120,
10201221,
10201122,
10221022,
#GOGOEND
3,
#END

COURSE:Hard
LEVEL:6
SCOREINIT:
SCOREDIFF:
NOTESDESIGNER2:Shoxk
#START
10202022,
00021122,
00001122,
,
10202022,
00021122,
02001122,
0022,
10121012,
10121212,
10121012,
10121212,
10121012,
10121221,
10121221,
11112220,
#GOGOSTART
32121211,
12121220,
12121211,
12121221,
12121211,
12121220,
12121211,
12121221,
12121211,
12121110,
12121211,
12121220,
12121211,
12121221,
12121211,
12121222,
#GOGOEND
302020202020,
200020002000200000200200,
1220,
100200202020,
102020202020,
200020002000200000200200,
1220,
1220,
12121212,
12121210,
12121212,
12121210,
12222222,
22222222,
5,
0008,
#GOGOSTART
32221222,
1020200110202000,
12221222,
1020200110202000,
12221222,
1020200110202000,
12221222,
1020200110111020,
12121212,
12121211,
12121211,
1020102010111020,
12121211,
12121121,
12121211,
1020102010111020,
#GOGOEND
3,
#END

COURSE:Oni
LEVEL:8
SCOREINIT:
SCOREDIFF:
NOTESDESIGNER3:Shoxk
#START
12222222,
22222222,
12222222,
11111111,
12222222,
22222222,
12222222,
11111111,
1020102010201022,
1020102010201222,
1020102010201022,
1020102010201222,
1020102010221022,
1020102010221022,
1222122212221222,
1111111111112222,
#GOGOSTART
1011202210112022,
1011202210112222,
1011202210112022,
1011202211221120,
1011202210112022,
1011202210112222,
1011202210112022,
1011222211112222,
1011202210122021,
1011202210112222,
1011202210122021,
1011202210112221,
1011202210122021,
1011202210111221,
1011202210122021,
1011122212111222,
#GOGOEND
1002002020020020,
2002002020020020,
1002002020020020,
2002002020020020,
1002002020020020,
2002002020020020,
1002002020020020,
1002002020020020,
1020102010201022,
1020102010201012,
1020102010201022,
1020102010201012,
1022202020222020,
2022202020222020,
2222222222222222,
50000008,
#GOGOSTART
#SCROLL 1.25
3022222010222220,
1022222110222220,
1022222010222220,
1022222110102012,
1022222010222220,
1022222110102022,
1022222010222220,
1022222110101121,
#SCROLL 1.5
1011202210112022,
1011202210122222,
1011202110122021,
1012202110111222,
1011202210122021,
1011202210112122,
1012202110112022,
1012202111221221,
#GOGOEND
#SCROLL 1.5
3,
#END
