TITLE:Spatium Cursu
SUBTITLE:--X3ll3n
WAVE:audio.ogg
BPM:170.00
OFFSET:-0.000
DEMOSTART:79.058
MAKER:Komi
PREIMAGE:Spacium Cursu.png

COURSE:Oni
LEVEL:7
BALLOON:
#START
#MEASURE 4/4
2,
10110120,
00000011,
20110110,
2,
10110120,
00002211,
20110110,
2000100011102000,
10110120,
10111011,
20110110,
2000100011102000,
10110120,
11102211,
20110110,
4111,
40101011,
4111,
40101011,
21112111,
21112111,
5008,
1011201010222010,
#GOGOSTART
2010201011102010,
1011201000102000,
1011201020102010,
2022101000102011,
2010201011102010,
1011201000102000,
1011201020102010,
2022101000102011,
2010201011102010,
1011201000102000,
1011201020102010,
2022101000102011,
2010201011102010,
1011201000102000,
1011201020102010,
2022101000102011,
#GOGOEND
#BPMCHANGE 85
50000080202020222020202210101010,
50000080202020222020202210101010,
50000080202020222020202210101010,
500000000000000000800000200000200000200000200000100010001000200000000000100100100100200000000000,
#BPMCHANGE 170
1020101120201022,
21
#SCROLL 2
586858,
#SCROLL 1
1020101120201022,
21
#SCROLL 2
5868
#SCROLL 1
21,
1020101120201022,
21
#SCROLL 2
586858,
#SCROLL 1
1020111120201122,
2010200020102011,
#GOGOSTART
1020101120201022,
2010112012202220,
1020101120201022,
2010221021102010,
1020101120201022,
2010112012202220,
1020111120201122,
2010211120102011,
1020101120201022,
2010112012202220,
1020101120201022,
2010221021102010,
1020101120201022,
2010112012202220,
1020111120201122,
2010211120102011,
#GOGOEND
2,
10110120,
00000011,
20110110,
2,
10110120,
00002211,
20110110,
20000021,
20110120,
00012211,
20110110,
20000021,
20110120,
00012211,
20110110,
#END

COURSE:Hard
LEVEL:5
BALLOON:
#START
#MEASURE 4/4
2,
10010020,
0,
10010010,
2,
10010020,
0021,
20010010,
20000120,
10110020,
10110020,
10110110,
20000120,
10110020,
01102010,
20110110,
4111,
4111,
4111,
4111,
20112011,
20112011,
5008,
11211210,
#GOGOSTART
20211120,
11210120,
10202111,
22110120,
20211120,
11210120,
10202111,
22110120,
20211120,
11210120,
10202111,
22110120,
20211120,
11210120,
10202111,
22110120,
#GOGOEND
#BPMCHANGE 85
1000222022201111,
1000222022201111,
1000222022201111,
1000222210201120,
#BPMCHANGE 170
12101210,
21102010,
12101210,
21102021,
12101210,
21102010,
12111211,
12102120,
#GOGOSTART
12101210,
21112010,
12101210,
21112021,
12101210,
21112010,
12111211,
12102121,
12101210,
21112010,
12101210,
21112021,
12101210,
21112010,
12111211,
12102121,
#GOGOEND
2,
10010020,
0,
20010010,
2,
10010020,
0,
20010010,
2002,
20110020,
0021,
20110010,
2002,
20110020,
0021,
20110010,
#END

COURSE:Normal
LEVEL:3
BALLOON:
#START
#MEASURE 4/4
2,
10010020,
0,
10010010,
2,
10010020,
0,
20010010,
2,
10010020,
0,
10010010,
2,
10010020,
0,
20010010,
41,
41,
41,
41,
2121,
2121,
5008,
10010010,
#GOGOSTART
1102,
1102,
1021,
1021,
1102,
1102,
1021,
1021,
1102,
1102,
1021,
1021,
1102,
1102,
1021,
1021,
#GOGOEND
#BPMCHANGE 85
10222210,
10222210,
10222210,
10221010,
#BPMCHANGE 170
1111,
22,
1111,
22,
1111,
22,
1111,
2,
#GOGOSTART
1111,
2021,
1111,
2021,
1111,
2021,
1111,
2122,
1111,
2021,
1111,
2021,
1111,
2021,
1111,
2111,
#GOGOEND
2,
10010020,
0,
20010010,
2,
10010020,
0,
20010010,
2002,
20010020,
0021,
20010010,
2002,
20010020,
0021,
20010010,
#END

COURSE:Easy
LEVEL:1
BALLOON:
#START
#MEASURE 4/4
1,
1,
0,
1,
1,
1,
0,
1,
1,
1001,
0,
1001,
1,
1001,
0,
1001,
2,
2,
2,
2,
22,
22,
58,
1,
#GOGOSTART
1,
1002,
0,
1,
1,
1002,
0,
1,
1,
1002,
0,
1,
1,
1002,
0,
1,
#GOGOEND
#BPMCHANGE 85
1021,
1021,
1021,
11,
#BPMCHANGE 170
1,
22,
1,
22,
1,
22,
11,
2,
#GOGOSTART
1,
22,
11,
22,
1,
22,
11,
22,
1,
22,
11,
22,
1,
22,
11,
2,
#GOGOEND
1,
1,
0,
1,
1,
1,
0,
1,
2,
2002,
02,
2,
2,
2002,
02,
2,
1,
#END
