TITLE:640x480
SUBTITLE:--TFD500
PREIMAGE:640x480.png
BPM:140
OFFSET:-0.040
DEMOSTART:75.468
WAVE:640x480.ogg
MAKER:Colin & Komi

COURSE:Edit
LEVEL:7
BALLOON:
NOTESDESIGNER4:Komi
#START
#BPMCHANGE 140
#MEASURE 4/4
0100000000000000,
22,
1122,
1010222210101212,
100000000100000100100100100000000100000010100000,
1001011110010022,
100000000100000100100100100000000100000010100000,
1001011110211021,
1111,
1000100020020222,
1111,
1000100010010110,
1020101120210120,
1020101120210120,
1020101120210120,
1010120202215080,
1020101120210120,
1020101120210120,
1020101120210120,
0000000020112020,
#GOGOSTART
1001011120110120,
1001022210110120,
1001011120110120,
1001022211011010,
1001011120110120,
1001022210110120,
1001011120110120,
100000000100000200200200100100000100100000101010,
#SCROLL 0.75
#GOGOEND
2002022200101101,
2002022200101101,
2002022211110010,
2002022210010010,
2002022200101101,
2002022200101101,
2002022211110010,
2002022211101111,
#SCROLL 1.00
2002022200101101,
2002022200101101,
2002022211110010,
2002022210010010,
2002022200101101,
2002022200101101,
2002022211110010,
2002022210111010,
#GOGOSTART
1011011120110120,
1011022210110120,
1011011120110120,
1011022211011010,
1011011120110120,
1011022210110120,
1011011120110120,
100000100100000200200200100010001000200020002000,
1011011120110120,
1011022210110120,
1011011120110120,
100000100100000200200200100100000100100000101010,
1011011120110120,
1011022210110120,
1011011120110120,
100000100100000200200200100010001000200020002000,
#GOGOEND
1020001120210120,
0020001220210120,
1020001120210120,
0020120202115080,
1020001120210120,
0020001220210120,
0020001120210120,
000000200000100200000200000200100100202020200000,
00
#SCROLL 0.75
200022202202
#SCROLL 1.00
G0,
#END

COURSE:Oni
LEVEL:9
BALLOON:
SCOREINIT:
SCOREDIFF:
NOTESDESIGNER3:Colin
#START
0200000000000000,
2020,
1122,
1001222210101212,
2001011110010010,
1001011110010022,
1001011110010010,
1001011110221020,
1121121210210120,
1121121211120211,
1121121210210120,
1121121211120210,
1121221120210120,
1121121120210210,
1121112210210120,
100200100000100200000200100200200100201010200000,
1121221120210120,
1121121120210210,
1121112210210120,
100200100000100200000200000200200100201010200000,
#GOGOSTART
#SCROLL 1.1
1121221120210120,
#SCROLL 1.2
1121121120210210,
#SCROLL 1.4
1121112210210120,
#SCROLL 1.3
100100200100100200000200000200100100201010200000,
#SCROLL 1.5
1121221120210120,
#SCROLL 1.6
1121121120210210,
#SCROLL 1.3
1121112210210120,
#SCROLL 1.1
100100200100100200000200100100100100201010202020,
#GOGOEND
#SCROLL 1
2002022210201202,
2002022210201202,
2002022212221010,
2002012210112010,
2002022210201202,
2002022210201202,
2002022212221010,
2002012210112010,
2002022210201202,
2002022210201202,
2002022212221010,
2002012210112010,
2002022210201202,
2002022210201202,
2002022212221010,
2002012210112010,
#GOGOSTART
#SCROLL 1.1
1121121120210120,
#SCROLL 1.2
1121121120210210,
#SCROLL 1.3
1121121120210120,
#SCROLL 1.4
100100200000100200000200000100100100201010200000,
#SCROLL 1.3
1121121120210120,
#SCROLL 1.2
1121121120210210,
#SCROLL 1.1
1121121120210120,
#SCROLL 1.2
100100200000200100200100
#SCROLL 1.3
1000
#SCROLL 1.4
1000
#SCROLL 1.5
1000
#SCROLL 1.6
2000
#SCROLL 1.5
2000
#SCROLL 1.4
2000,
#SCROLL 1.3
1121121120210120,
#SCROLL 1.2
1121121120210210,
#SCROLL 1.3
1121121120210120,
#SCROLL 1.4
100100200000100200000200100100000100201010200000,
#SCROLL 1.3
1121121120210120,
#SCROLL 1.2
1121121120210210,
#SCROLL 1.1
1121121120210120,
#SCROLL 1
100100100000200100200200
#SCROLL 1
1000
#SCROLL 1.1
1000
#SCROLL 1.2
1000
#SCROLL 1.3
2000
#SCROLL 1.2
2000
#SCROLL 1.1
2000,
#GOGOEND
#SCROLL 1
1020001120210120,
0020001120210210,
0020001120210120,
000000100000200200000200000100100100201010200000,
1020001120210120,
0020001120210210,
0020001120210120,
000000100000200200000200000200100100201010200000,
0020001120210120,
#END

COURSE:Hard
LEVEL:6
SCOREINIT:
SCOREDIFF:
#START
0200000000000000,
2020,
1122,
1002222010101110,
1001011110010010,
1001011110010022,
2002022220020020,
1001011110201020,
2002002010010010,
1001002010010111,
1001001010110110,
1001001011110110,
1020002020220220,
0020002020220220,
1020001010110110,
1010220202222020,
1020002020220220,
0020002020220220,
1020001010110110,
1010220202222020,
#GOGOSTART
1020001020110110,
1020001020110110,
1020001020110110,
1010220202222010,
1020001020110110,
1020001020110110,
1020001020110110,
1010220202222010,
#GOGOEND
2,
2,
2,
2020,
2220,
2220,
2220,
2222,
1001011100000000,
1001011100000000,
1001011100000000,
1001011110010010,
2002022200000000,
2002022200000000,
2002022200000000,
2002022220020020,
#GOGOSTART
1020001020110110,
1020001020110110,
1020001020110110,
1010220202222010,
1020001020110110,
1020001020110110,
1020001020110110,
100200200000202020202020,
1020001020110110,
1020001020110110,
1020001020110110,
1010220202222010,
1020001020110110,
1020001020110110,
1020001020110110,
100200200000202020202020,
#GOGOEND
0020002020220220,
0020002020220220,
0020002020220220,
0020220202202220,
0020002020220220,
0020002020220220,
0020002020220220,
0020220200202220,
0020002020220220,
#END

COURSE:Normal
LEVEL:4
SCOREINIT:
SCOREDIFF:
#START
0200000000000000,
2020,
2222,
20581011,
1001001010010010,
1001001010010010,
1001001010010010,
1001001010010010,
1111,
1111,
1111,
1000100010010010,
11102010,
11102010,
11102010,
1010100010020010,
10111020,
10111020,
10111020,
10001110,
#GOGOSTART
1020000010010010,
1020000010010010,
1020000010010010,
1010100020020020,
1020000010010010,
1020000010010010,
1020000010010010,
1010100020020020,
#GOGOEND
2,
2,
2,
2,
2,
2,
2,
2020,
1001001010000000,
1001001010000000,
1001001010000000,
1001001010010010,
2002002020000000,
2002002020000000,
2002002020000000,
2002002020020020,
#GOGOSTART
1020000010010010,
1020000010010010,
1020000010010010,
1010100020020020,
1020000010010010,
1020000010010010,
1020000010010010,
11101020,
1020000010010010,
1020000010010010,
1020000010010010,
1010100020020020,
1020000010010010,
1020000010010010,
1020000010010010,
11101020,
#GOGOEND
1,
2,
2,
2,
2,
2,
2,
2,
02000004,
#END

COURSE:Easy
LEVEL:2
BALLOON:5,5
SCOREINIT:
SCOREDIFF:
#START
0200000000000000,
2,
2,
2,
1010,
1,
1010,
1,
1010,
1,
1010,
1,
1020,
1,
1020,
1,
1020,
1,
1020,
1,
#GOGOSTART
2020,
2,
2,
2020,
2,
1010,
1010,
1010,
#GOGOEND
2,
2,
2,
2,
2,
2,
2,
2020,
1010,
1,
1010,
1,
1010,
1,
1010,
1,
#GOGOSTART
1110,
1110,
1110,
1022,
1110,
1110,
1110,
1070,
8110,
1110,
1110,
1022,
1110,
1110,
1110,
1070,
#GOGOEND
8,
2,
2,
2,
2,
2,
2,
2,
02000004,
#END
