TITLE:Deceiver
SUBTITLE:--H5
WAVE:Deceiver.ogg
BPM:150.00
OFFSET:-0.000
DEMOSTART:51.600
MAKER:Komi

COURSE:Oni
LEVEL:7
BALLOON:1,1
#START
#MEASURE 1/4
0022,
#MEASURE 4/4
1010102000000011,
2002001002001010,
2002001000000012,
2002001001002020,
1010102000000011,
2001002002002020,
20020000,
20010010,
11121110,
11121110,
11121110,
1010102010112000,
11121110,
11121110,
11121110,
11117878,
2020202220202000,
2202022022020220,
2202022022020220,
2202022022202000,
2020202220202000,
2202022022020220,
2202022022020220,
2202022022202000,
1020120200101201,
0020120200101202,
1020120200101201,
0120120101201102,
1020120200101201,
0020120200101202,
1020120200101201,
11115008,
#GOGOSTART
1010120010120020,
2012001012002101,
1010120010120020,
2012001012002020,
1010120010120020,
2012002022002202,
1010120010120020,
2012001012002020,
1010120010120020,
2012001012002101,
1010120010120020,
2012001012002020,
1010120010120020,
2012002022002202,
1010120010120020,
11115008,
#GOGOEND
1020120200101201,
0020120200101202,
1020120200101201,
0120120101201102,
1020120200101201,
0020120200101202,
1020120200101201,
11115008,
1010202000000011,
2021202210121021,
2020101000000012,
2002001001001020,
1010202000000011,
2021202210121021,
2020101000000012,
2004004004005080,
#GOGOSTART
1010120110120120,
1020120120120120,
1010120110120120,
1020120120102020,
1010120110120120,
1020120120120120,
1020210120120120,
2011012012012020,
1010120110120120,
1020120120120120,
1010120110120120,
1020120120102020,
1010120110120120,
1020120120120120,
1020110040000000,
40404044,
#GOGOEND
40010020,
01001010,
3,
1,
#END

COURSE:Edit
LEVEL:8
BALLOON:1,1
#START
#MEASURE 1/4
0022,
#MEASURE 4/4
1010102000000011,
2002001002001010,
2002001000000012,
2002001001002020,
1010102000000011,
2001002002002020,
20020000,
20010010,
1010102010111010,
1010102010111010,
1010102010111010,
1010102010112010,
1010102010111010,
1010102010111010,
1010102010111010,
1111222270807080,
2022202020220220,
2022202020220220,
2020220220222020,
2020220220222020,
2022202020220220,
2022202020220220,
2020220220202220,
2220220220222220,
1020120200101201,
0020120200101202,
1020120200101201,
1121121101211112,
1020120200101201,
0020120200101202,
1020120200101201,
1010101011111111,
#GOGOSTART
1010120110120120,
2012011012012101,
1010120110120120,
2012011012012020,
1010120110120120,
2012012022012202,
1010120110120120,
2012011012012020,
1010120110120120,
2012011012012101,
1010120110120120,
2012011012012020,
1010120110120120,
2012012022012202,
1010120110120120,
1010101011111111,
#GOGOEND
1020120200101201,
0020120200101202,
1020120200101201,
1121121101211112,
1020120200101201,
0020120200101202,
1020120200101201,
1121121101211112,
1010202000000011,
2211221112121211,
2020101000000012,
2002001001001020,
1010202000000011,
2211221112121211,
2020101000000012,
200000000400000000400000000400000000202020202020,
#GOGOSTART
1010120110120120,
1121121121121120,
1010120110120120,
1121121121112020,
1010120110120120,
1121121122122120,
1020210120120120,
2011012012012020,
1010120110120120,
1121121121121120,
1010120110120120,
1121121121112020,
1010120110120120,
1121121122122120,
1020110040000000,
40404044,
#GOGOEND
40010020,
01001010,
3,
1,
#END

COURSE:Hard
LEVEL:6
BALLOON:1,1,1,1
#START
#MEASURE 1/4
0,
#MEASURE 4/4
11120001,
2002001002001010,
2002001000000010,
2002001001002020,
11120001,
2001002002002020,
20020000,
20010010,
11121110,
11121110,
11121110,
11121120,
11121110,
11121110,
11121110,
78787878,
20202220,
22202220,
20202220,
2020200022202000,
20202220,
22202220,
20202220,
2020200022202000,
1010100200202001,
0010100200202000,
1010100200202000,
1010220102201010,
1010100200202001,
0010100200202000,
1010100200202000,
11115008,
#GOGOSTART
1010020010020020,
2002001002002201,
1010020010020020,
2002001002002020,
1010020010020020,
2002002002002201,
1010020010020020,
2002001002002020,
1010020010020020,
2002001002002201,
1010020010020020,
2002001002002020,
1010020010020020,
2002002002002201,
1010020010020020,
11115008,
#GOGOEND
1010100200202001,
0010100200202000,
1010100200202000,
1010220102201010,
1002002020010010,
1002002020001010,
1002002020001010,
2201022010102201,
11220001,
21212211,
22110001,
2002001001001020,
11220001,
21212211,
22110001,
2004004004001010,
#GOGOSTART
1010020010020020,
1020102022011010,
0010020010020020,
1020102022011010,
0010020010020020,
1020102022011010,
0010020010020020,
2002001002002020,
1010020010020020,
1020102022011010,
0010020010020020,
1020102022011010,
0010020010020020,
1020102022011010,
0010020040000000,
40404044,
#GOGOEND
40010020,
01001010,
3,
1,
#END

COURSE:Normal
LEVEL:3
BALLOON:9
#START
#MEASURE 1/4
0,
#MEASURE 4/4
10020000,
20010010,
20010000,
20010020,
10020000,
20020020,
20020000,
20010010,
10121010,
10121010,
10121010,
10121020,
10121010,
10121010,
10121010,
7008,
2222,
2222,
2222,
20202220,
2222,
2222,
2222,
20202220,
1000100100001001,
0000100200002000,
2000200200002000,
2211,
1000100200002002,
0000200200002000,
1000100100001000,
1158,
00
#GOGOSTART
10010020020000,
2002001001000000,
0010010020020000,
2002001001000000,
0010010020020000,
2002002002000000,
0020020010010000,
2002001001000000,
0010010020020000,
2002001001000000,
0010010020020000,
2002001001000000,
0010010020020000,
2002002002000000,
0020020010010000,
2002001001000000,
#GOGOEND
1000100100001001,
0000100200002000,
2000200200002000,
2211,
1000100200002002,
0000200200002000,
1000100100001000,
1158,
10020000,
2221,
20010000,
20010010,
10020000,
2221,
20010000,
20040011,
00
#GOGOSTART
10010020020000,
2211,
0010010020020000,
2211,
0010010020020000,
2222,
0020020010010000,
2002001001000000,
0010010020020000,
2211,
0010010020020000,
2211,
0010010020020000,
2222,
0020020040000000,
40404044,
#GOGOEND
40010020,
01001010,
3,
1,
#END

COURSE:Easy
LEVEL:3
BALLOON:9
#START
#MEASURE 1/4
0,
#MEASURE 4/4
2,
2,
2,
2,
2,
2,
2,
2,
1011,
1011,
1011,
1110,
1011,
1011,
1011,
7008,
2022,
2022,
2022,
22,
2022,
2022,
2022,
22,
1100,
1102,
2022,
2011,
1022,
0221,
1011,
1058,
0
#GOGOSTART
1001000,
20020000,
01001000,
20020000,
01001000,
20020000,
02002000,
10010000,
01001000,
20020000,
01001000,
20020000,
01001000,
20020000,
02002000,
10010000,
#GOGOEND
1100,
1102,
2022,
2011,
1022,
0221,
1011,
1058,
1,
22,
2,
2001,
1,
22,
2,
20040011,
0
#GOGOSTART
1001000,
22,
01001000,
22,
01001000,
22,
02002000,
11,
01001000,
22,
01001000,
22,
01001000,
22,
02002000,
10010000,
#GOGOEND
2002,
01,
3,
1,
#END
