TITLE:Deceiver's Terminus
SUBTITLE:--H5
WAVE:DeceiverTerminus.ogg
BPM:190.00
OFFSET:-0.236
DEMOSTART:284.408
MAKER:Komi

COURSE:Oni
LEVEL:10.4
BALLOON:10,10,39
#START
#MEASURE 4/4
0,
0,
0,
0,
11220000,
0,
11220000,
02,
11220000,
0,
11120011,
22000000,
11220000,
0,
11220000,
02,
11220000,
0,
10020010,
02000000,
11220201,
01010212,
11220201,
01012122,
11220202,
01020221,
11220011,
22000000,
11220201,
01010212,
11220201,
01012122,
11220202,
01020200,
10020010,
02700008,
2011201020001011,
1010200021111110,
1011201020001010,
1011201122222220,
2011201020001011,
1010200022222020,
1011201000112010,
0011201120121111,
1011201020001011,
1010200022222020,
1011201020001010,
1011201121111010,
2011201020001011,
1010200022222020,
1111,
100000100000100000111100,
11111111,
10001000100010001000100011001100,
12121212,
12121212,
22222222,
2222222222222222,
#GOGOSTART
2010101120101020,
00001010100020001100110010001000,
2120101020101020,
0011102011101020,
2010101120101020,
00001010100020001100110010001000,
2120102000212020,
1011201122102010,
2010101120101020,
00001010100020001100110010001000,
2120101020101020,
0011102011101020,
2010101120101020,
00001010100020001100110010001000,
2120102000212020,
1011201122102010,
1010202011201010,
1110201000201020,
1011202010202010,
0010201020112020,
1010202011202020,
01220221,
4011204000112040,
0020101011101020,
1010202011202010,
0010201011201020,
11220221,
0010201020112020,
11221212,
1110202010202010,
1011202000112020,
0020201122101111,
#GOGOEND
2011201020001011,
1010200022222020,
1011201020001010,
1011201122222220,
2011201020001011,
1010200022222020,
1011201000112010,
0011201120121111,
1011201020001011,
1010200022222020,
1011201020001010,
1011201121111010,
2011201020001011,
1010200022222020,
1111,
100000100000100000111100,
11111111,
10001000100010001000100011001100,
12121212,
12121212,
22222222,
200
#SCROLL 4.000000
4,
#SCROLL 1.000000
10000000100000001000000011002200,
11002200110011005000000000000080,
10000000100000001100220011002200,
500000000000000000000800200020002000200020002000,
00000000100000001100220011002200,
11002200110011001000001010000010,
20000000100000001100220011002200,
11002200110011001000001010000010,
20000000100000002020202011001100,
200020002000200020002000100000000100100000000100,
10000000100000001100220011002200,
5000000820002000,
10000000100000001100220011002200,
11002200110011001000001010000010,
10000000100000001100220011002200,
11002200110011001010100010001000,
11220000,
0,
11220000,
02,
11220000,
0,
11120011,
22000000,
11220000,
0,
11220000,
02,
00112200,
0,
#MEASURE 2/4
0,
#BPMCHANGE 152.000000
#MEASURE 4/4
10000000
#SCROLL 0.850000
100000000
#SCROLL 0.730000
2000000,
0
#SCROLL 0.580000
20000000000,
#SCROLL 0.480000
1220101020102211,
1220101020121211,
2220102020102111,
#MEASURE 15/16
101020000010102020000022202020,
#MEASURE 4/4
#SCROLL 1.000000
20102020102010201020202010201011,
10102020102010222020202010201011,
10102020222010202020202022201010,
11101010111010101110101011111111,
#GOGOSTART
1220101212201121,
1220111212002212,
10202000100010201020200020102011,
1220101122112111,
1220101212201121,
1220111212002212,
10202000100010201020200020102011,
20201120201120201120101020102010,
2000000
#SCROLL 3.000000
4,
40
#SCROLL 1.000000
11
#SCROLL 3.000000
40
#SCROLL 1.000000
11
#SCROLL 3.000000
40
#SCROLL 1.000000
11
#SCROLL 3.000000
40
#SCROLL 1.000000
11,
#SCROLL 3.000000
40
#SCROLL 1.000000
10
#SCROLL 3.000000
4
#SCROLL 1.000000
110
#SCROLL 3.000000
4
#SCROLL 1.000000
110
#SCROLL 3.000000
4
#SCROLL 1.000000
110,
#SCROLL 3.000000
4
#SCROLL 1.000000
111
#SCROLL 3.000000
40
#SCROLL 1.000000
11
#SCROLL 3.000000
4
#SCROLL 1.000000
11
#SCROLL 3.000000
4
#SCROLL 1.000000
11
#SCROLL 3.000000
4
#SCROLL 1.000000
1,
#SCROLL 3.000000
40
#SCROLL 1.000000
11
#SCROLL 3.000000
40
#SCROLL 1.000000
11
#SCROLL 3.000000
40
#SCROLL 1.000000
11
#SCROLL 3.000000
40
#SCROLL 1.000000
11,
#SCROLL 3.000000
40
#SCROLL 1.000000
10
#SCROLL 3.000000
4
#SCROLL 1.000000
110
#SCROLL 3.000000
4
#SCROLL 1.000000
110
#SCROLL 3.000000
4
#SCROLL 1.000000
110,
#SCROLL 3.000000
4
#SCROLL 1.000000
111
#SCROLL 3.000000
40
#SCROLL 1.000000
11
#SCROLL 3.000000
40
#SCROLL 1.000000
11
#SCROLL 3.000000
40
#SCROLL 1.000000
11,
#SCROLL 3.000000
40
#SCROLL 1.000000
1010
#SCROLL 3.000000
40
#SCROLL 1.000000
1010
#SCROLL 3.000000
40
#SCROLL 1.000000
10
#SCROLL 3.000000
40
#SCROLL 1.000000
101110
#SCROLL 3.000000
40
#SCROLL 1.000000
101110,
#BPMCHANGE 205.000000
#GOGOEND
#SCROLL 0.600000
2,
0,
11220000,
02,
12220000,
0,
11120011,
22000000,
11220000,
0,
11220000,
02,
12220000,
0,
10010010,
02000000,
#SCROLL 0.800000
11220201,
01010212,
11220201,
01012122,
11220202,
01020221,
11220011,
22000000,
#SCROLL 1.000000
11220201,
01010212,
11220201,
01012122,
11221122,
11221122,
11111111,
11101010101010101110101011101010,
2011201020001011,
1010200022222020,
1011201020001010,
1011201122222220,
2011201020001011,
1010200022222020,
1011201000112010,
0011201120121111,
1011201020001011,
1010200022222020,
1011201020001010,
1011201121111010,
2011201020001011,
1010200022222020,
1111,
100000100000100000111100,
#SCROLL 1.050000
11111111,
10001000100010001000100011001100,
#SCROLL 1.100000
12121212,
12121212,
#SCROLL 1.160000
22222222,
#SCROLL 0.950000
2
#SCROLL 0.900000
2
#SCROLL 0.860000
2
#SCROLL 0.820000
2
#SCROLL 0.780000
2
#SCROLL 0.740000
2
#SCROLL 0.700000
2
#SCROLL 0.660000
2
#SCROLL 0.630000
2
#SCROLL 0.600000
2
#SCROLL 0.570000
2
#SCROLL 0.540000
2
#SCROLL 0.510000
2
#SCROLL 0.480000
2
#SCROLL 0.460000
2
#SCROLL 0.440000
2,
#SCROLL 1.000000
#GOGOSTART
1110102011201020,
1010102010202211,
1020112010201010,
1020102010202211,
1110102011201020,
1010102010202211,
#GOGOEND
200000000000200000000000202020200000200000200200,
200022002200
#SCROLL 3.000000
40
#SCROLL 1.000000
22,
#GOGOSTART
2110202021202120,
2010202020202211,
2020212021202011,
2020202020202211,
2110202021202120,
2010202020202211,
2211202122212010,
4011221122112111,
1011202010102011,
1011221021212110,
1011202010102011,
1011221021212120,
#GOGOEND
20000000100000001100220011002200,
11002200110011001000001010000010,
20000000100000001100220011002200,
11002200110011001000001020202000,
2111
#GOGOSTART
201120201010,
2011101122102121,
2110101120201010,
2011101122102121,
#GOGOEND
20000000100000001100220011002200,
11002200110011001000001010000010,
20000000100000001100220011002200,
11002200110011001000001020202020,
#BPMCHANGE 200.000000
2010101120101020,
00001010100020001100110010001000,
2120101020101020,
0011102011101020,
2010101120101020,
00001010100020001100110010001000,
2120102000212020,
1011201122102010,
2010101120101020,
00001010100020001100110010001000,
2120101020101020,
0011102011101020,
2010101120101020,
00001010100020001100110010001000,
2120102000212020,
1011201122102010,
#SCROLL 0.800000
11220201,
01010212,
11220201,
01012122,
11220202,
01020221,
11220011,
22000000,
11220201,
01010212,
11220201,
01012122,
11220202,
01020200,
10020010,
00002000700000000000000000000800,
11220000,
0,
11220000,
02,
11220000,
0,
11120011,
22000000,
11220000,
0,
01122000,
0002,
00011220,
0,
0,
12,
0100000000200070,
0,
8,
#END

COURSE:Hard
LEVEL:8
BALLOON:6,8,6,11
#START
#MEASURE 4/4
0,
0,
0,
0,
11220000,
0,
11220000,
02,
11220000,
0,
11120011,
22000000,
11220000,
0,
11220000,
02,
11220000,
0,
10020010,
02000000,
11220201,
01010212,
11220201,
01012122,
11220202,
01020221,
11220011,
22000000,
11220201,
01010212,
11220201,
01012122,
11220202,
01020200,
10020010,
02700008,
21212011,
1010201110102000,
11212001,
11212222,
21212011,
1010201110202020,
11210121,
0010201020120120,
21212011,
1010201110102000,
11212001,
11212222,
21212011,
1010201110202020,
1111,
10101011,
11111111,
11111122,
12121212,
12121212,
22222222,
50000008,
#GOGOSTART
21120112,
01121111,
22112112,
01121112,
01112112,
01121111,
22120221,
01212121,
21120112,
01121111,
22112112,
01121112,
01112112,
01121111,
22120011,
21212121,
11221211,
01210212,
11221221,
01212122,
11221222,
01220221,
41240124,
02111112,
11221221,
01211212,
11220221,
01212122,
11221212,
11221221,
11220122,
0020201022201010,
#GOGOEND
21212011,
1010201110102000,
11212001,
11212222,
21212011,
1010201110202020,
11210121,
0010201020120120,
21212011,
1010201110102000,
11212001,
11212222,
21212011,
1010201110202020,
1111,
10101011,
11111111,
11111122,
12121212,
12121212,
22222222,
000
#SCROLL 4.000000
4,
#SCROLL 1.000000
10101012,
12115080,
10101212,
500800222222,
00101212,
12111111,
20101212,
12111111,
20102211,
202020202020100100100100,
10101212,
5822,
10101212,
12111111,
10101212,
1020101011101010,
11220000,
0,
11220000,
02,
11220000,
0,
11120011,
22000000,
11220000,
0,
11220000,
02,
00112200,
0,
#MEASURE 2/4
0,
#BPMCHANGE 152.000000
#MEASURE 4/4
10000000
#SCROLL 0.850000
100000000
#SCROLL 0.730000
2000000,
0
#SCROLL 0.580000
20000000000,
#SCROLL 0.480000
12112121,
12112112,
1010102020102011,
#MEASURE 15/16
102000102002222,
#BPMCHANGE 152.000000
#MEASURE 4/4
#SCROLL 1.000000
22111212,
22112211,
22212221,
1110111011101010,
#GOGOSTART
1200101202201020,
1200101202002010,
1200101202202020,
1200101102012010,
1200101202201020,
1200101202002010,
1200101202202020,
4004004004001111,
10000004,
41414141,
41414141,
4010401040140140,
41414141,
41414141,
41414141,
4014014040104011,
#BPMCHANGE 205.000000
#GOGOEND
#SCROLL 0.600000
2,
0,
11220000,
02,
12220000,
0,
11120011,
22000000,
11220000,
0,
11220000,
02,
12220000,
0,
10010010,
02000000,
#SCROLL 0.800000
11220201,
01010212,
11220201,
01012122,
11220202,
01020221,
11220011,
22000000,
#SCROLL 1.000000
11220201,
01010212,
11220201,
01012122,
11221122,
11221122,
11111111,
70000008,
21212011,
1010201110102000,
11212001,
11212222,
21212011,
1010201110202020,
11210121,
0010201020120120,
21212011,
1010201110102000,
11212001,
11212222,
21212011,
1010201110202020,
1111,
10101011,
11111111,
11111122,
12121212,
12121212,
22222222,
4,
#GOGOSTART
11121212,
11120221,
12121211,
12120221,
11121212,
11121221,
#GOGOEND
2000200022202020,
222
#SCROLL 3.000000
4,
#SCROLL 1.000000
#GOGOSTART
11121212,
11120221,
12121211,
12120221,
11121212,
11121221,
11121212,
1010102011102010,
11221121,
1010201020201110,
11221121,
1010201020222020,
#GOGOEND
20101212,
12111111,
20101212,
12111122,
21
#GOGOSTART
221121,
1010201020201110,
11221121,
1010201020222020,
#GOGOEND
20101212,
12111111,
20101212,
12111122,
#BPMCHANGE 200.000000
21120112,
01121111,
22112112,
01121112,
01112112,
01121111,
22120221,
01212121,
21120112,
01121111,
22112112,
01121112,
01112112,
01121111,
22120011,
21212121,
#SCROLL 0.800000
11220201,
01010212,
11220201,
01012122,
11220202,
01020221,
11220011,
22000000,
11220201,
01010212,
11220201,
01012122,
11220202,
01020200,
10020010,
00002000700000000000000000000800,
11220000,
0,
11220000,
02,
11220000,
0,
11120011,
22000000,
11220000,
0,
01122000,
0002,
00011220,
0,
0,
12,
0100000000200070,
0,
8,
#END

COURSE:Normal
LEVEL:7
BALLOON:6,8,6,11
#START
#MEASURE 4/4
0,
0,
0,
0,
10020000,
0,
10020000,
02,
10020000,
0,
10020010,
02000000,
10020000,
0,
10020000,
02,
10020000,
0,
10020010,
02000000,
10020201,
01010000,
10020201,
01010000,
10020202,
01020000,
10020010,
02000000,
10020201,
01010000,
10020201,
01010000,
10020202,
01020200,
10020010,
02700008,
2221,
00101120,
10202001,
00211011,
2221,
10201120,
10120121,
0121,
2221,
00101120,
10202001,
00211011,
2221,
10201120,
1111,
10101011,
1111,
10101022,
1111,
1111,
2222,
5008,
#GOGOSTART
20120102,
01020110,
20120102,
01020012,
01020102,
01020110,
20120201,
01010112,
20120102,
01020110,
20120102,
01020012,
01020102,
01020110,
20120201,
01010110,
10020201,
01010000,
10020201,
01010000,
10020202,
01020000,
10020010,
02000000,
10020201,
01010000,
10020201,
01010000,
10020202,
01020000,
10020010,
02001011,
#GOGOEND
2221,
00101120,
10202001,
00211011,
2221,
10201120,
10120121,
0121,
2221,
00101120,
10202001,
00211011,
2221,
10201120,
1111,
10101011,
1111,
10101022,
1111,
1111,
2222,
0004,
1111,
1158,
1111,
5822,
0111,
10101111,
2111,
10101111,
2121,
20201111,
1111,
5822,
1111,
10101111,
1111,
10101110,
10020000,
0,
10020000,
02,
10020000,
0,
10020010,
02000000,
10020000,
0,
10020000,
00000200,
00100200,
0,
#MEASURE 2/4
0,
#BPMCHANGE 152.000000
#MEASURE 4/4
10000000
#SCROLL 0.850000
100000000
#SCROLL 0.730000
2000000,
0
#SCROLL 0.580000
20000000000,
#SCROLL 0.480000
1122,
1121,
1122,
#MEASURE 15/16
102000102000000,
#BPMCHANGE 152.000000
#MEASURE 4/4
#SCROLL 1.000000
22101120,
20102210,
11202021,
11212111,
#GOGOSTART
10210112,
10102021,
10112020,
10112021,
10210112,
10102021,
10112020,
10112021,
10000004,
4444,
4444,
4000400040040040,
4444,
4444,
4444,
4004004040004010,
#BPMCHANGE 205.000000
#GOGOEND
#SCROLL 0.600000
2,
0,
10020000,
02,
10020000,
0,
10020010,
02000000,
10020000,
0,
10020000,
02,
10020000,
0,
10010010,
02000000,
#SCROLL 0.800000
10020201,
01010000,
10020201,
01010000,
10020202,
01020000,
10020010,
02000000,
#SCROLL 1.000000
10020201,
01010000,
10020201,
01010020,
1112,
1212,
1111,
70000008,
2221,
00101120,
10202001,
00211011,
2221,
10201120,
10120121,
0121,
2221,
00101120,
10202001,
00211011,
2221,
10201120,
1111,
10101011,
1111,
10101022,
1111,
1111,
2222,
4,
#GOGOSTART
1111,
10120020,
1111,
10120020,
1111,
10120020,
#GOGOEND
20202220,
2224,
#GOGOSTART
1111,
10120020,
1111,
10120020,
1111,
10120020,
1111,
10120111,
10020101,
01010011,
10020101,
01012222,
#GOGOEND
2111,
10101111,
2111,
10101120,
200
#GOGOSTART
20101,
01010011,
10020101,
01012222,
#GOGOEND
2111,
10101111,
2111,
10101120,
#BPMCHANGE 200.000000
20120102,
01020110,
20120102,
01020012,
01020102,
01020110,
20120201,
01010112,
20120102,
01020110,
20120102,
01020012,
01020102,
01020110,
20120201,
01010110,
#SCROLL 0.800000
10020201,
01010000,
10020201,
01010000,
10020202,
01020000,
10020010,
02000000,
10020201,
01010000,
10020201,
01010000,
10020202,
01020200,
10020010,
00002000700000000000000000000800,
10020000,
0,
10020000,
02,
10020000,
0,
10020010,
02000000,
10020000,
0,
01002000,
0002,
00010020,
0,
0,
12,
0100000000200070,
0,
8,
#END

COURSE:Easy
LEVEL:5
BALLOON:5,5,7,6,11
#START
#MEASURE 4/4
0,
0,
0,
0,
1,
0,
1,
0,
1,
0,
1001,
0,
1,
0,
1,
02,
1,
0,
1001,
0,
10000001,
00010000,
10000001,
00010000,
10000200,
01000000,
1001,
0,
10000200,
01000000,
10000200,
01000000,
10000200,
01000200,
0001,
0708,
2021,
0110,
10002001,
0110,
2021,
0110,
10020002,
02,
2021,
0110,
10002001,
0110,
2021,
0110,
11,
11,
1110,
1112,
1110,
1110,
2220,
5008,
#GOGOSTART
20020002,
00020000,
20020002,
00020000,
20020002,
00020000,
20020205,
0008,
20020002,
00020000,
20020002,
00020000,
20020002,
00020000,
20020020,
5008,
10000001,
00010000,
10000001,
00010000,
10000200,
01000000,
1001,
0,
10000200,
01000000,
10000200,
01000000,
10000200,
01000200,
2001,
0708,
#GOGOEND
2021,
0110,
10002001,
0110,
2021,
0110,
10020002,
02,
2021,
0110,
10002001,
0110,
2021,
0110,
11,
11,
1110,
1112,
1110,
1110,
2220,
0004,
11,
1158,
11,
5820,
0100,
1111,
21,
1111,
22,
2211,
11,
5820,
11,
1111,
11,
1011,
10020000,
0,
10020000,
02,
10020000,
0,
10020010,
02000000,
10020000,
0,
10020000,
00000200,
00100200,
0,
#MEASURE 2/4
0,
#BPMCHANGE 152.000000
#MEASURE 4/4
100000001000000002000000,
020000000000,
1,
1,
1,
#MEASURE 15/16
100000001000000,
#BPMCHANGE 152.000000
#MEASURE 4/4
1112,
0112,
1112,
0220,
#GOGOSTART
11,
11,
12,
1022,
11,
11,
12,
1022,
0,
44,
44,
44,
44,
44,
44,
4044,
#BPMCHANGE 205.000000
#GOGOEND
2,
0,
1,
0,
1,
0,
1001,
0,
1,
0,
1,
0,
1,
0,
1001,
0,
10000200,
01000000,
10000200,
01000000,
10000200,
01000000,
1001,
0,
10000200,
01000000,
10000200,
01000000,
11,
11,
1011,
7008,
2021,
0110,
10002001,
0110,
2021,
0110,
10020002,
02,
2021,
0110,
10002001,
0110,
2021,
0110,
11,
11,
1110,
1112,
1110,
1110,
2220,
4,
#GOGOSTART
11,
10020020,
11,
10020020,
11,
10020020,
#GOGOEND
2022,
2004,
#GOGOSTART
11,
10020020,
11,
10020020,
11,
10020020,
11,
10020020,
10020001,
00010010,
10020001,
00010200,
#GOGOEND
21,
1111,
21,
1112,
100
#GOGOSTART
20001,
00010010,
10020001,
00010200,
#GOGOEND
21,
1111,
21,
1112,
#BPMCHANGE 200.000000
20020002,
00020000,
20020002,
00020000,
20020002,
00020000,
20020205,
0008,
20020002,
00020000,
20020002,
00020000,
20020002,
00020000,
20020020,
5008,
10000200,
01000000,
10000200,
01000000,
10000200,
01000000,
1001,
0,
10000200,
01000000,
10000200,
01000000,
10020002,
00020000,
1001,
00000000700000000000000000000800,
1,
0,
1,
0,
1,
0,
1001,
0,
1,
0,
01000000,
0,
00010000,
0,
0,
1,
0100000000000070,
0,
8,
#END
