TITLE:Emily
SUBTITLE:--H5
WAVE:Emily.ogg
BPM:310
OFFSET:-0
DEMOSTART:95.999
SCOREMODE:2
MAKER:bol & Komi

COURSE:Edit
LEVEL:12
BALLOON:15,1
SCOREINIT:590
SCOREDIFF:0
#START
#SCROLL 0.5
#MEASURE 8/4
3211,
2112,
1000121220002010,
2000122120001000,
3211,
2122,
1000112220002010,
2000122120002000,
#SCROLL 0.75
3121212122121212,
1121212122121212,
1011212212121122,
2222,
3121212122121212,
1121212122121212,
102112112112122122122122,
#SCROLL 1
300000
#SCROLL 0.75
1120201020,
#SCROLL 1
#MEASURE 4/4
30110110,
11012010,
10110110,
11012130,
30110110,
21012210,
20210210,
100000100000100100101010100000100000100000100000,
4000112000112000,
1120001120205080,
4000101120101011,
2010111020205080,
4010112020112010,
2011102021205080,
2112112112112112,
1212121211111111,
#SCROLL 0.5
7,
#BARLINEOFF
,
80000000
#SCROLL 0.52
1
#SCROLL 0.54
1
#SCROLL 0.56
1
#SCROLL 0.58
1
#SCROLL 0.6
1
#SCROLL 0.62
1
#SCROLL 0.64
1
#SCROLL 0.66
1,
#SCROLL 0.68
1
#SCROLL 0.7
1
#SCROLL 0.72
1
#SCROLL 0.74
1
#SCROLL 0.76
1
#SCROLL 0.78
1
#SCROLL 0.8
1
#SCROLL 0.82
1
#SCROLL 0.84
1
#SCROLL 0.86
1
#SCROLL 0.88
1
#SCROLL 0.9
1
#SCROLL 0.92
1
#SCROLL 0.94
1
#SCROLL 0.96
1
#SCROLL 0.98
1,
#SCROLL 1
#BARLINEON
#GOGOSTART
4000101010101011,
1010101010101011,
1111111110101010,
100100100000100100100000101010100000100000101010,
2000100010101011,
1010101122111011,
2011104011104010,
200100100200100100200100100200200200202020200200,
1000101010101011,
1010101010101011,
1111111110101010,
100100100000100100100000101010100000100000101010,
2010101120102010,
100100100100100000100100100100100000101010100000,
40114014,
000000100100100000100000100100100100101010100000,
4000101010101011,
1010101010101011,
1111111110101010,
100100100000100100100000101010100000100000101010,
2000100010101011,
1010101122111011,
2011104011104010,
200100100200100100200100100200200200202020200200,
1000101010101011,
1010101010101011,
1111111110101010,
100100100000100100100000101010100000100000101010,
2010101120102010,
100100100100100000100100100100100000101010100000,
40114014,
000000100100100000100000100100100100101010100100,
#GOGOEND
#BPMCHANGE 155
#MEASURE 4/4
#SCROLL 0.5
10000000
#SCROLL 2
4000
#SCROLL 0.5
2222,
200200100200200200101010
#SCROLL 2
400000000000
#SCROLL 0.5
202020200000,
1000000022001000
#SCROLL 2
40000000
#SCROLL 0.5
21002000,
200200000000100000000000200000000000100000100000
#SCROLL 2
400000000000
#SCROLL 0.5
100000000000202000100000100000200000,
1000000022001010
#SCROLL 2
40000000
#SCROLL 0.5
22001000,
200200000000100000000000200000000000100000100000
#SCROLL 2
400000000000
#SCROLL 0.5
202000000000202000000000202000000000,
200200000000000000000000200000000000100000100000
#SCROLL 2
400000000000000000000000
#SCROLL 0.5
202000100000100000200000,
#SCROLL 1.75
20102010101120102000101020101000,
#BPMCHANGE 310
#MEASURE 8/4
#SCROLL 0.5
10000010
#SCROLL 1
4000
#SCROLL 0.75
2222,
1110101011101010
#SCROLL 1
4000
#SCROLL 0.5
100020000000,
11
#SCROLL 1
4
#SCROLL 0.5
1,
20001010
#SCROLL 1
40
#SCROLL 0.5
112010,
1001
#SCROLL 1
40
#SCROLL 0.5
10,
10112010
#SCROLL 1
40
#SCROLL 0.5
102112,
10001000
#SCROLL 1
4000
#SCROLL 0.5
2112,
#SCROLL 1
100000100100200000100000200010001000200010001000200000000000100010001000200000000000100000000000,
#SCROLL 8
#MEASURE 4/4
6,
#BARLINEOFF
,
,
0008,
#SCROLL 0.5
2,
,
78000000
#SCROLL 0.52
1
#SCROLL 0.54
1
#SCROLL 0.56
1
#SCROLL 0.58
1
#SCROLL 0.6
1
#SCROLL 0.62
1
#SCROLL 0.64
1
#SCROLL 0.66
1,
#SCROLL 0.68
1
#SCROLL 0.7
1
#SCROLL 0.72
1
#SCROLL 0.74
1
#SCROLL 0.76
1
#SCROLL 0.78
1
#SCROLL 0.8
1
#SCROLL 0.82
1
#SCROLL 0.84
1
#SCROLL 0.86
1
#SCROLL 0.88
1
#SCROLL 0.9
1
#SCROLL 0.92
1
#SCROLL 0.94
1
#SCROLL 0.96
1
#SCROLL 0.98
1,
#BARLINEON
#SCROLL 1
#GOGOSTART
20120110,
2010111120102010,
20120110,
2010111120101220,
4000102000121010,
4000102000121020,
300000000222,
33,
4000101021212010,
2010112220102212,
100000100100120120100200,
100000100000101010200000200000100000200200100200,
2011104000102110,
4011104000112010,
211211211211,
2011112021111120,
#GOGOEND
30120110,
20112141,
#GOGOSTART
40120110,
2010111120102220,
4000102000111020,
4000102000121020,
406000000000000000000800406000000000000000000800,
406000000000000000000800406000000000000000000800,
4000101022222210,
200000100000201000201000200200100100200000100000,
20112111,
20102211,
2010102021212020,
200000100000101000101000200100200100200000200000,
20112111,
20102211,
2000101022222210,
200000100000201000201000200200100100200000100000,
4000111040101110,
4011101040111110,
4010112112112111,
2211221121112111,
1122111212221212,
2121212121212121,
#GOGOEND
#SCROLL 8
6,
,
,
0008,
#MEASURE 8/4
#SCROLL 0.5
3211,
2112,
1011211221122212,
#SCROLL 1
100000200000100000200000100020001000200010002000100200100200100200100200102010201020500000800000,
3,
#END

COURSE:Oni
LEVEL:7
BALLOON:11,23,11
SCOREINIT:1180
SCOREDIFF:0
#START
#SCROLL 0.665
#MEASURE 8/4
1211,
2112,
1000121220002010,
2000121120001000,
1211,
2122,
1000112210002010,
2000121120001000,
1012102010121010,
2010211010201020,
1012101210121011,
2221,
1012102010121010,
2010211010201020,
17000000,
80202121,
3012012012012020,
1012012012012040,
3012012012012020,
1012012012012020,
4003003003003330,
3000300030003330,
3003303030033300,
30000030000030000303030300000000,
7,
00000008,
#GOGOSTART
4001001011101020,
1000101110101010,
4001001001002220,
20000020000020002002002002002000,
4001001001001011,
1010101010111010,
4010202011101010,
20202022,
4001001011101020,
1000101110101010,
4001001001002220,
20000020000020002002002002002000,
4001001001001011,
1001001010111010,
4010202011101010,
40404044,
#GOGOEND
#BPMCHANGE 155
#MEASURE 4/4
#SCROLL 1.2
2000001140201010,
2010001140000000,
30014011,
2010001140102111,
2000101140201010,
2010001140202020,
3000101040001011,
2010111140102111,
#BPMCHANGE 310
#MEASURE 8/4
#SCROLL 0.665
2000001140202220,
2010111140102000,
30114011,
2010101140102111,
2000101140201010,
2011401140202020,
3000101040001011,
2010111140102111,
2,
,
2,
70000008,
#GOGOSTART
2012011020112121,
2012011020112121,
2012011020120110,
1000002210001000,
2011222120112121,
2011122210102011,
2012011020120110,
2058585850850858,
#GOGOEND
2012011020112121,
#GOGOSTART
2012011020112121,
2012011020120110,
3333,
2011222120112121,
2122,
1011222120112121,
2122,
1011222120112121,
2011201120112011,
2050000000000008,
5000000850000008,
#GOGOEND
4,
,
1211,
2112,
1011221122112211,
50000008,
3,
,
#END

COURSE:Hard
LEVEL:9
BALLOON:15
SCOREINIT:870
SCOREDIFF:0
#START
#SCROLL 0.665
#MEASURE 8/4
1111,
1011,
1000222020002020,
2000222020002000,
1111,
1102,
2000222020002020,
2000222020002000,
1011101010111000,
1011101010111000,
22222222,
2222,
1011101010111000,
1011101010111000,
50000008,
40002220,//
#BRANCHSTART p,75,90
#M
#SCROLL 1
3011011011011020,
1011011011011020,
3011011011011020,
10000010000010001010111010101010,
4014014014014458,
4011401140114458,
4014404040144458,
40000040000040000404040400000000,
3,
00500008,
#GOGOSTART
40001010101010111010101010101011,
10111011101010101110111010101000,
20001000101010111010101120111010,
20001040001040102012012012022000,
40001010101010111010101010101011,
10111011101010101110111010101000,
20001000101010111010101120111010,
40001000400010400011101011101000,
40001010101010111010101010101011,
10111011101010101110111010101000,
20001000101010111010101120111010,
20001040001040102012012012022000,
40001010101010111010101010101011,
10111011101010101110111010101000,
20001000101010111010101120111010,
40001000400010400011101011101000,
#GOGOEND
#E
#SCROLL 0.8
3011001011002000,
1011001011002000,
3011001021002000,
10000010000010001010111010101010,
4012012012012058,
4001200120012058,
4012012021022058,
40000040000040000404040400000000,
7,
80500008,
#GOGOSTART
4011101011101010,
10001010100010101110101010001000,
2010101011102011,
40001040001040002002002002000000,
1011101011101010,
10001010100010101110101010001000,
2010101011102011,
40001000400010400011101010101000,
4011101011101010,
10001010100010101110101010001000,
2010101011102011,
40001040001040002002002002000000,
1011101011101010,
10001010100010101110101010001000,
2010101011102011,
40001000400010400011101010101000,
#GOGOEND
#N
3001001001002020,
1001001001002040,
3001001001002020,
1001001001002020,
1002002002002220,
2000200020002220,
2002202020022200,
20000020000020000202020200000000,
3,
,
#GOGOSTART
3001001001002220,
1000111010001000,
3001001001002220,
20000020000020002002002002000000,
3001001001002220,
1000111010001000,
3000202011101000,
2000200200500080,
3001001001002220,
1000111010001000,
3001001001002220,
20000020000020002002002002000000,
3001001001002220,
1000111010001000,
3000202011101000,
4000400400000000,
#GOGOEND
#BRANCHEND
#SECTION
#BPMCHANGE 155
#MEASURE 4/4
#SCROLL 1.2
1000001120001010,
2010001120000000,
10012011,
2010001120102102,
1000101120000010,
0000001120202020,
1000101120001010,
2010111020102000,
#BPMCHANGE 310
#MEASURE 8/4
#SCROLL 0.665
1000001020001110,
1011101020002000,
1121,
1000101020112010,
10012010,
1011200020102000,
1000100020002102,
1011101050000080,
3,
,
2,
,
#BRANCHSTART p,85,95
#M
#SCROLL 1
#GOGOSTART
20001020001110002010111020102000,
20001020001110002011111020112000,
3014023030140230,
3000002230003000,
40001010222020001110201120001000,
10001010221020001110201022202000,
3014023230140121,
201010201010201010201010200000100100200200100000,
#GOGOEND
2012011020112121,
#GOGOSTART
40001020001110002010111020112000,
3014023030140230,
4444,
40001010222011102010221020101022,
2011201120112011,
20001010222011102010221020101022,
2011201120112011,
20001010222011102010221020101022,
2011201120112011,
40001000101010001110100011101000,
11101110111011101110111022202220,
#GOGOEND
5,
0008,
#SCROLL 0.665
1111,
1011,
1022202022202220,
#SCROLL 1
10001010100010101010101011111000,
3,
,
#E
#SCROLL 0.8
#GOGOSTART
2012011021102120,
2012011021112120,
3004003030040030,
3000002230003000,
4011222011212020,
1011212011212020,
3014023030140120,
2121212120112210,
#GOGOEND
3,
#GOGOSTART
4012011021112120,
3004003030040030,
4444,
4011221021212112,
2011201120112000,
2011221021212112,
2011201220212000,
2011221021212112,
2011201120112000,
4010101011101110,
11101010111010105000000000000080,
#GOGOEND
3,
,
#SCROLL 0.665
1111,
1011,
1022202022202220,
#SCROLL 0.8
10001000100010001010101011101000,
3,
,
#N
#GOGOSTART
2002001020111010,
2002001020111020,
3002002030020020,
1000002210001000,
1011101020202000,
2011101020102000,
3004001030040020,
25085008,
#GOGOEND
2002001020111010,
#GOGOSTART
2002001020111020,
3002002030020020,
3333,
5,
8000111022202220,
5,
8000111022202220,
50000008,
4444,
1011102012102110,
50000008,
#GOGOEND
4,
,
1111,
1011,
1022202022202220,
50000008,
3,
,
#END

COURSE:Normal
LEVEL:7
BALLOON:
SCOREINIT:1720
SCOREDIFF:0
#START
#SCROLL 0.665
#MEASURE 8/4
1111,
1011,
1000222020002020,
2000222020002000,
1111,
1102,
2000222020002020,
2000222020002000,
1011101010111000,
1011101010111000,
22222222,
2222,
1011101010111000,
1011101010111000,
50000008,
40002220,
3001001001002020,
1001001001002040,
3001001001002020,
1001001001002020,
1002002002002220,
2000200020002220,
2002202020022200,
20000020000020000202020200000000,
3,
,
#GOGOSTART
3001001001002220,
1000111010001000,
3001001001002220,
20000020000020002002002002000000,
3001001001002220,
1000111010001000,
3000202011101000,
2000200200500080,
3001001001002220,
1000111010001000,
3001001001002220,
20000020000020002002002002000000,
3001001001002220,
1000111010001000,
3000202011101000,
4000400400000000,
#GOGOEND
#BPMCHANGE 155
#MEASURE 4/4
#SCROLL 1.2
1000001020001010,
2010001020000000,
10012011,
2010001020102102,
1000101020000010,
0000001020202020,
1000101020001010,
2010101020102000,
#BPMCHANGE 310
#MEASURE 8/4
#SCROLL 0.665
1000001020001110,
1011101020002000,
1121,
1000101020112010,
10012010,
1011200020102000,
1000100020002102,
1011101050000080,
3,
,
2,
,
#GOGOSTART
2002001020111010,
2002001020111020,
3002002030020020,
1000002210001000,
1011101020202000,
2011101020102000,
3004001030040020,
25085008,
#GOGOEND
2002001020111010,
#GOGOSTART
2002001020111020,
3002002030020020,
3333,
5,
8000111022202220,
5,
8000111022202220,
50000008,
4444,
1011102012102110,
50000008,
#GOGOEND
4,
,
1111,
1011,
1022202022202220,
50000008,
3,
,
#END

COURSE:Easy
LEVEL:6
BALLOON:
SCOREINIT:2340
SCOREDIFF:0
#START
#SCROLL 0.665
#MEASURE 8/4
1111,
1011,
10202022,
20222020,
1111,
1102,
20222022,
20222020,
11111110,
11111110,
2222,
2222,
11111110,
11111110,
50000008,
40002220,
3001001001002000,
1001001001002000,
3001001001002000,
1001001001002000,
1002002002002000,
2222,
2002000020020000,
20000020000020000500000800000000,
3,
,
#GOGOSTART
3001001001002020,
1,
3001001001002020,
20000020000020005000000008000000,
3001001001002020,
1,
30220000,
2000200200500080,
3001001001002020,
1,
3001001001002020,
20000020000020005000000008000000,
3001001001002020,
1,
30220000,
4000400400000000,
#GOGOEND
#BPMCHANGE 155
#MEASURE 4/4
#SCROLL 1.2
12,
22,
12,
2022,
2120,
2022,
1121,
2122,
#BPMCHANGE 310
#MEASURE 8/4
#SCROLL 0.665
10012011,
11112020,
1121,
10112121,
10012010,
11202120,
1122,
11115008,
3,
,
2,
,
#GOGOSTART
2002001020101010,
2002001020101020,
3002002030020020,
1011,
1010101020202000,
2010101020102000,
3004001030040020,
25085008,
#GOGOEND
2002001020101010,
#GOGOSTART
2002001020101020,
3002002030020020,
3333,
5,
8122,
5,
8122,
50000008,
4444,
11121121,
50000008,
#GOGOEND
4,
,
1111,
1011,
12222222,
50000008,
3,
,
#END
