TITLE:Chasing the Wind
SUBTITLE:--DashyDesu
BPM:168
WAVE:Chasing the Wind.ogg
PREIMAGE:preimage.jpg
OFFSET:-0.894
DEMOSTART:35.715
SCOREMODE:2
MAKER:Dashy & bol

COURSE:Edit
LEVEL:10.3
BALLOON:20,2
SCOREINIT:780
SCOREDIFF:0
#START
#SCROLL 2
#MEASURE 3/8
#BARLINEOFF
44,
#MEASURE 4/4
#BARLINEON
#SCROLL 1
3011201202112012,
0210201120211210,
1011201202112012,
0210201121120220,
3021012010112012,
0210201120211210,
1021012010112012,
0210201120121220,
1011201020121020,
0011202211221020,
1021201020112110,
0211201120210210,
1011201020121020,
000000200000102020100000100100200200100200200000,
2022102020121020,
0200201121212210,
#SCROLL 0.85
1011201040112010,
0011201040112112,
1021201040112120,
1021220120112212,
1022201040112010,
0011212040112110,
#SCROLL 1
33443444,
1021121121102210,
#GOGOSTART
1021112011211020,
1221021020112210,
1011211201212020,
4040304000112211,
1122211222112010,
2121212211112010,
2221222122112211,
1021221000112210,
1021112011211020,
2021221201112110,
1011211201212020,
4040304022121121,
1122211222212010,
2121212222120220,
#GOGOEND
#SCROLL 1
2012012010211020,
1021212010212210,
2012012010212120,
1121012020212020,
1211202010122020,
1021212010212210,
1121201210122210,
2211212212112122,
#SCROLL 0.75
1020120020000121,
1120020020000020,
1020120120120121,
1120120212211210,
1111102222201110,
2222201111102220,
#SCROLL 1
3030404030302222,
10
#SCROLL 1.1
400
#SCROLL 1.2
400
#SCROLL 1.3
400
#SCROLL 1.4
400
#SCROLL 1.5
40,
#MEASURE 2/4
#BARLINEOFF
0
#SCROLL 1.6
400
#SCROLL 1.7
400
#SCROLL 1.8
7,
#BARLINEON
#MEASURE 1/16
#SCROLL 1.9
,
#SCROLL 2
,
#SCROLL 2.1
,
#SCROLL 2.2
,
#SCROLL 2.3
,
#SCROLL 2.4
,
#SCROLL 2.5
,
#SCROLL 2.6
,
#MEASURE 1/32
#SCROLL 2.8
,
#SCROLL 2.9
,
#SCROLL 3
,
#SCROLL 3.1
,
#SCROLL 3.2
,
#SCROLL 3.3
,
#SCROLL 3.4
,
#SCROLL 3.5
,
#SCROLL 3.6
,
#SCROLL 3.7
,
#SCROLL 3.8
,
#SCROLL 3.9
,
#SCROLL 4
,
#SCROLL 4.2
,
#SCROLL 4.4
,
#SCROLL 4.6
,
#SCROLL 4.8
,
#SCROLL 5
,
#SCROLL 5.2
,
#SCROLL 5.4
,
#SCROLL 5.6
,
#SCROLL 5.8
,
#SCROLL 6
8,
#SCROLL 6.5
,
#MEASURE 1/4
#SCROLL 1.1
#BARLINEOFF
2022,
#GOGOSTART
#MEASURE 4/4
#BARLINEON
1021112011211020,
1221021020112210,
1011211201212020,
4040304000112211,
1122211222112010,
2121212211112010,
2221222122112111,
1021221000112210,
1021112011211020,
2021221201112110,
1011211201212020,
4040304022121121,
1122211222212010,
21212122212211
#GOGOEND
70,
#SCROLL 4
800000000000000000000000
#SCROLL 1
22002020,
#GOGOSTART
1120120121120120,
1120120211212210,
2211111122112111,
2112012022112111,
1122211222112010,
2121212211112010,
2221222122112111,
1021221000112210,
1120120121120120,
1120120211212210,
2211111122112111,
2112012022112111,
1122211222112010,
21212122212220
#GOGOEND
40,
,
,
#END

COURSE:Oni
LEVEL:9
BALLOON:
SCOREINIT:880
SCOREDIFF:0
#START
#MEASURE 3/8
#BARLINEOFF
401400,
#MEASURE 4/4
#BARLINEON
1011201100012010,
1200200210112012,
1010200101102022,
1020120120120220,
1011200100012011,
1200200210112112,
1011220101102022,
1200201122102210,
1011200001012022,
1001201110102022,
1020122010102022,
1200202110121022,
1011202001012022,
1001201110112022,
1021021001202022,
1200202212121120,
1020120040021022,
1020120040001000,
1020120040021022,
1020120401112020,
1020120040021022,
1020120040001020,
33443344,
1040040040112000,
#GOGOSTART
1022102011021020,
1202102210201120,
1122102012021022,
1021021022112102,
1120120030021120,
1220120030021010,
2210221022112120,
32230400,
1022102012021120,
1202102210221020,
1120102012201020,
3040403022112022,
1120120030221120,
1020120120120122,
#GOGOEND
1011201100012011,
1200200210112012,
1011200101102022,
1120120122120220,
1011201102012011,
0221201201202102,
1001220101102022,
1121221211221122,
1020120040021022,
1020120040001020,
1020120040021022,
1020120401112220,
1020120040021022,
1120120040001020,
33443344,
1121121121121121,
1211211200000000,
0000000000002022,
#GOGOSTART
1022102211021020,
1202102210201120,
1120102112021022,
1021021022112102,
1122120030021120,
1222120030221010,
2211221122112120,
3022203000400000,
1020102212021120,
1202102010221020,
1122102112021020,
3040403022112022,
1122122010221120,
11211211211211
#GOGOEND
20,
00000000000000000000000022002020,
#GOGOSTART
1022102211021022,
1202102210221120,
1122102112021022,
1021021022112102,
1122120030021122,
1222120030221010,
2211221122112120,
3022203000400000,
1020102212021120,
1202102210201120,
1122102112021020,
3040403022112122,
1122120210221122,
11211211211210
#GOGOEND
40,
,
,
#END

COURSE:Hard
LEVEL:7
BALLOON:10
SCOREINIT:1560
SCOREDIFF:0
#START
#MEASURE 3/8
#BARLINEOFF
44,
#MEASURE 4/4
#BARLINEON
10210000,
0100000010101110,
10210000,
0100000010101111,
10210000,
0100000010101110,
10210000,
0100000010101111,
1001101010002000,
1001101000222000,
1001101010002000,
10202220,
1001101010002000,
1001101000222000,
3003003000002000,
10202222,
10002001,
1120,
10002001,
1020000020002220,
1120,
10112000,
11111111,
0030030030000000,
#GOGOSTART
10201120,
11201220,
10201120,
3003003000400000,
1020020040020020,
1020020040020020,
1110111022202220,
11130400,
10201120,
1020220200202000,
10201120,
3003003000400000,
1020020040020020,
1110111011101000,
#GOGOEND
1001101010002000,
1001101000222000,
1001101010002000,
10202220,
1001101010002000,
1001101000222000,
1011101010002000,
70000008,
30002001,
1120,
10002001,
1020000020002220,
1120,
10112000,
11111111,
0030030030030030,
0300300300000000,
,
#GOGOSTART
1000200011102000,
11211220,
1000200011102000,
3003003000400000,
1010110040022020,
1010110040022020,
1110111022202220,
11130400,
1010200011102000,
1020220220202000,
1000200011102000,
3003003000400000,
1010110040022020,
1110111011111110,
#GOGOEND
,
#GOGOSTART
1000200011102000,
11211220,
1000200011102000,
3003003000400000,
1010110040022020,
1010110040022020,
1110111022202220,
11130400,
1010200011102000,
1020220220202000,
1000200011102000,
3003003000400000,
1010110040022020,
11101110111111
#GOGOEND
10,
,
,
#END

COURSE:Normal
LEVEL:5
BALLOON:8,8
SCOREINIT:2400
SCOREDIFF:0
#START
#MEASURE 3/8
#BARLINEOFF
,
#MEASURE 4/4
#BARLINEON
10010000,
0100000010001010,
10010000,
0100000010001010,
10020000,
0100000020001010,
10020000,
0100000020001010,
10201120,
1202,
10201120,
1202,
11200020,
11101020,
3003003000000000,
7008,
12,
1120,
10002001,
1120,
10010010,
20020020,
10101110,
0030030030000000,
#GOGOSTART
1212,
10111000,
2121,
3003003000400000,
0020020020001000,
0020020020001000,
11101110,
30030300,
1212,
10111000,
2121,
3003003000400000,
0020020020001000,
6008,
#GOGOEND
10201120,
1202,
10201120,
1202,
11200020,
11101020,
11201020,
7008,
12,
1120,
10002001,
1120,
10010010,
20020020,
10101110,
0030030030030030,
0300300300000000,
,
#GOGOSTART
1212,
10111010,
2121,
3003003000400000,
1020020020001000,
1020020020001000,
11101110,
30030300,
1212,
10111020,
20222010,
3003003000400000,
1020020020001000,
6008,
#GOGOEND
,
#GOGOSTART
1212,
10111010,
2121,
3003003000400000,
1020020020001000,
1020020020001000,
11101110,
30030300,
1212,
10111020,
20222010,
3003003000400000,
1020020020001000,
6008,
#GOGOEND
,
,
#END

COURSE:Easy
LEVEL:3
BALLOON:5,10,5,5
SCOREINIT:3680
SCOREDIFF:0
#START
#MEASURE 3/8
#BARLINEOFF
3,
#MEASURE 4/4
#BARLINEON
1101,
0101,
1101,
0202,
1101,
0101,
1101,
0202,
1101,
0102,
1101,
0220,
1101,
0101,
30030010,
0258,
12,
12,
1120,
1220,
12,
12,
5008,
0330,
#GOGOSTART
1120,
1220,
1110,
30030300,
02002000,
02002000,
1110,
30030300,
1120,
1220,
1110,
30030300,
02002000,
7008,
#GOGOEND
1101,
0102,
1101,
0220,
1101,
0101,
30030010,
0258,
12,
12,
1120,
1220,
12,
12,
5008,
07000000,
0008,
,
#GOGOSTART
1120,
1220,
1110,
30030300,
02002000,
02002000,
1110,
30030300,
1120,
1220,
1110,
30030300,
02002000,
7008,
#GOGOEND
,
#GOGOSTART
1122,
1220,
1110,
30030300,
02002000,
02002000,
1110,
30030300,
1122,
1220,
1110,
30030300,
02002000,
7008,
#GOGOEND
,
,
#END
