TITLE:Broken Metronome
SUBTITLE:--DashyDesu
BPM:90
WAVE:br.ogg
OFFSET:1.967
DEMOSTART:21.80
SCOREMODE:2
PREIMAGE:br.png
MAKER:Dashy & Komi

COURSE:Edit
LEVEL:10.8
BALLOON:
SCOREINIT:
SCOREDIFF:
#START
000000000000000000000000000000000000000000000000000000000000000000000000202000000100100000100000,
30001000200010101000101120002000,
1011201112112010,
10021010200010101020001020201000,
10001010200010101021121120011010,
30001000200010101000101120002000,
10001010200010101020101020011010,
10021010200010101020001020201000,
10001010200010101021121120011010,
#BPMCHANGE 180
1001201110112010,
1001201112012011,
1001201110102211,
1001221011212022,
1021221110112010,
1021221112012011,
1021221221021221,
1221221011212022,
#BPMCHANGE 240
#SCROLL 0.75
122122122122,
#SCROLL 0.8
122122
#SCROLL 0.9
122122,
#SCROLL 1
1011201110112210,
1011202212112011,
1011201110112110,
1121202210112210,
1011201110112010,
1011202210112011,
1022102010221020,
2211222211112211,
#GOGOSTART
1022102010221020,
1122102012221040,
1011202210201010,
12121211,
1022102010221020,
1122102012221040,
1011202210201010,
12121211,
1022201022201022,
2010222011111000,
1022201022201022,
2010222011112220,
2211102211102222,
1022221021112111,
#GOGOEND
2
#BPMCHANGE 160
#SCROLL 1.5
0101010
#SCROLL 1.35
20101010
#SCROLL 1.2
20101010
#SCROLL 1.05
20101000,
#SCROLL 1
1111,
1111,
1111,
1000100010001022,
30112011,
02112000,
10112201,
12102210,
10112021,
00112001,
10112202,
12102010,
30112011,
02112000,
10112201,
12102210,
10112021,
00112001,
10112202,
12102010,
100000000000000
#BPMCHANGE 190
0,
10101110,
1001201110112010,
1001201112012011,
1001201110102211,
1001221011212022,
1021221110112010,
1021221112012011,
1021221221021221,
1221221011212022,
10202010222010202010202010202010,
200200100200200100200200100200200200100000202020,
10202010222010202010202010202010,
2212212212221000,
10202010222010202010202010202010,
200200100200200100200200100200200200100000202020,
10202010222010202010201010202020,
#BPMCHANGE 250
#SCROLL 0.76
122122
#SCROLL 0.86
122
#SCROLL 0.96
122,
#SCROLL 1
#GOGOSTART
1022102010221020,
1122102012221040,
1011202210201010,
12121211,
1022102010221020,
1122102012221040,
1011202210201010,
1212121
#GOGOEND
1,
#GOGOSTART
1022102010221020,
1122102012221040,
1011202210201010,
12121211,
1022102010221020,
1122102012221040,
1011202210201010,
#GOGOEND
201102111201,
#GOGOSTART
1022201022201022,
2010222011112222,
1022201022201022,
2010222011112220,
2211102211102222,
1022221021112011,
2211102211102211,
1022111040000000,
#END

COURSE:Oni
LEVEL:10.4
BALLOON:3,3
SCOREINIT:
SCOREDIFF:
#START
#BPMCHANGE 90
,
1011200210102000,
1010200212112010,
1010200110112000,
1011201202102010,
1011200210102000,
1010200212112010,
1010200110112000,
1011201202102010,
#BPMCHANGE 180
1002102012021000,
1022102012021000,
1002102012221000,
1222102212221000,
1002102012021000,
1022102012021020,
1002102012221020,
1222102212221020,
#BPMCHANGE 240
3333,
3333,
1011101010002000,
1011101010222020,
1011101010002000,
1011101010222220,
1011101010202000,
1011101010222020,
30211202,
11211202,
#GOGOSTART
1011100010102020,
1011100010102020,
1011100022200020,
11221120,
1011200010102020,
1011200010102020,
1011201010200020,
11211120,
2011102010102011,
1020101020111000,
2011102010102011,
12112120,
41141141,
14114111,
400
#GOGOEND
#BPMCHANGE 160
000000000000010000000400000000000000010000000400000000000000010000000400000000000000000000000,
1111,
1000100010221020,
1111,
1022122010201022,
1000101020001011,
12112011,
10112011,
02112212,
2220201020001010,
12102012,
12212210,
1000101010111000,
1000101020001011,
12112011,
10112011,
02112212,
2220001020001010,
10102012,
10012212,
1000101010111110,
300000000000000
#BPMCHANGE 190
0,
10101110,
1002102012021000,
1022102012021022,
1002102012221000,
1222102212221222,
1002102012021020,
1022102012021020,
1002102012221020,
1222102212221020,
1221221221221221,
2212212211111022,
1221221221221221,
2212212211111000,
1221221221221221,
2212212211111022,
1221221221221222,
#BPMCHANGE 250
122122122122,
#GOGOSTART
1011100010102020,
0011101010102020,
0011100022200020,
11221120,
1011202010102020,
1011200010102020,
1011201010200020,
1121112
#GOGOEND
0,
#GOGOSTART
1011101010102020,
0011101010102020,
0011101022201020,
11221120,
1011200010102020,
1011202010102020,
1011201010202010,
#GOGOEND
201102101200,
#GOGOSTART
2011102011102011,
1020111070008000,
2011102011102011,
1020111020112010,
2011102011102011,
1020111070008000,
2011102011102011,
1020111040000000,
#END

COURSE:Hard
LEVEL:8
BALLOON:
#START
#MEASURE 4/4
0000000000000001,
11201120,
1010200210102010,
1010200110102000,
1010201202102010,
1010200210102000,
1010200210102010,
1010200110102000,
1010201202102010,
#BPMCHANGE 180
1001101011002000,
1001101011002000,
1001101011002000,
1001101011002000,
1002202011002000,
1002202011002020,
1002202011002020,
1002202011101020,
#BPMCHANGE 240
3333,
3333,
11210020,
11210022,
11210020,
11210022,
21210020,
2010201010111010,
30212011,
20211011,
#GOGOSTART
20001122,
11101122,
11101202,
11221120,
11201122,
11101122,
11211202,
11211120,
21121121,
12112010,
21121121,
12112020,
40040040,
04004030,
4
#BPMCHANGE 160
#GOGOEND
0000000400000004000000020000000,
1000100010001011,
1000100010201020,
1000100010001011,
1000100010201020,
1000101020001010,
1000101020001010,
1000101020001010,
0020101020001020,
1000101020001010,
1020100020001020,
1000101020001000,
1000101020001000,
1000101020001010,
1020101020001010,
1000101020001010,
0020101020001010,
2020001020001010,
1000100020001020,
1000001020201020,
1000101010111010,
300000000000000
#BPMCHANGE 190.000000
0,
1000100010101000,
1001101011002000,
1001101011002020,
1001101011002000,
1001101011002000,
1002202011002020,
1002202011002020,
1002202011002020,
1002202011002020,
1001111001001001,
0010010011101000,
1001111001001001,
0010010011101000,
1001111001001001,
0010010011101000,
1001111001001011,
#BPMCHANGE 250.000000
1111,
#GOGOSTART
20001122,
11101122,
11101202,
11221120,
11201122,
11101122,
11101202,
11211120,
#GOGOEND
#GOGOSTART
10001122,
11101122,
11101212,
11221120,
11201122,
11101122,
11211221,
#GOGOEND
2121,
#GOGOSTART
21121121,
12112010,
21121121,
12112020,
21121121,
12112010,
21121121,
1211
#GOGOEND
4111,
2000
#SCROLL 0.980000
2000
#SCROLL 0.960000
20000
#SCROLL 0.940000
200,
00
#SCROLL 0.920000
200000
#SCROLL 0.900000
20000
#SCROLL 0.880000
200,
0000
#SCROLL 0.860000
20000
#SCROLL 0.840000
2000000,
#SCROLL 0.820000
2
#SCROLL 0.800000
2,
#SCROLL 0.780000
200000000
#SCROLL 0.760000
2000000,
0
#SCROLL 0.740000
200,
#SCROLL 0.720000
2000000
#SCROLL 0.700000
2,
0,
0,
0,
0000000
#SCROLL 1.000000
202000000,
#END

COURSE:Normal
LEVEL:7
BALLOON:16,16,16,16
#START
#MEASURE 4/4
0,
10201120,
10201121,
10201120,
10201021,
10201120,
10201120,
10201120,
10201121,
#BPMCHANGE 180
1112,
1112,
1112,
1112,
1212,
10201022,
10201022,
10201012,
#BPMCHANGE 240
3333,
3333,
11010020,
11010020,
11010020,
11010020,
20220020,
20221111,
2211,
20201011,
#GOGOSTART
20001122,
00001122,
00001202,
00221120,
10001122,
00001122,
00001202,
00221120,
20020020,
02002010,
20020020,
02002020,
40140140,
14014030,
4
#BPMCHANGE 160
#GOGOEND
0000000400000004000000020000000,
1000100010001010,
1000100010001020,
1000100010001010,
1000100010001020,
1000101020001000,
1000101020001000,
1000101020001010,
0020100020001000,
1000101020001000,
1000100020001000,
1000100020001000,
1000101020001000,
1000101020001000,
1000101020001000,
1000101020001010,
0020100020001010,
2020001020001000,
1000100020001000,
1000001020001000,
1000001020001010,
300000000000000
#BPMCHANGE 190
0,
1000100010101000,
1000100010002000,
1000100010002020,
1000100010002000,
1000100010002000,
1000200010002020,
1000200010002020,
1000200010002020,
1000200010002020,
7000000000000000,
0000000000801070,
0,
0000000080101000,
7000000000000000,
0000000000801070,
0,
#BPMCHANGE 250
0000000000801000,
#GOGOSTART
20001122,
00001122,
00001202,
00221120,
10001122,
00001122,
00001202,
00221120,
#GOGOEND
#GOGOSTART
10001122,
00001122,
00001202,
00221120,
10001122,
00001122,
00202211,
#GOGOEND
2121,
#GOGOSTART
20020020,
02002010,
20020020,
02002020,
20120120,
12012010,
20120120,
1201
#GOGOEND
4000,
0,
0,
0,
0,
0,
0,
0,
0,
0,
0,
0000000202000000,
#END

COURSE:Easy
LEVEL:5
BALLOON:36,35
#START
#MEASURE 4/4
0,
2,
1021,
2001,
2001,
2,
1021,
2002,
1212,
#BPMCHANGE 180
1002,
1002,
1002,
1002,
1202,
1202,
1202,
1201,
#BPMCHANGE 240
33,
33,
10010000,
10010020,
10010000,
10010020,
20020000,
20020010,
21,
21,
#GOGOSTART
20001002,
00001002,
00001002,
0212,
10001002,
00001002,
00001002,
0212,
20020020,
02002000,
20020020,
02002000,
40040040,
04004000,
4
#BPMCHANGE 160
#GOGOEND
0000000400000004000000020000000,
1000000000001000,
1000000000001000,
1000000000001000,
1000000000001000,
1000101000002000,
0000000010020000,
1000000000001000,
1000000020001000,
1000000000001000,
1000000000001000,
1000000000001000,
1000000000001000,
1000001000002000,
0000000020010000,
1000000000001000,
1000000020001000,
1000000000001000,
1000000000001000,
1000000000001000,
1000000000001000,
300000000000000
#BPMCHANGE 190
0,
1000000010001000,
1000000000002000,
1000000000002000,
1000000000002000,
1000000000002000,
1000000000002000,
1000000000002000,
1000000000002000,
1000000000002000,
7000000000000000,
0,
0,
0000000080001000,
7000000000000000,
0,
0,
#BPMCHANGE 250
00000800,
#GOGOSTART
20001002,
00001002,
00001002,
0212,
10001002,
00001002,
00001002,
0212,
#GOGOEND
#GOGOSTART
10001002,
00001002,
00001002,
0212,
10001002,
00001002,
02,
#GOGOEND
2121,
#GOGOSTART
20020020,
02002000,
20020020,
02002000,
20020020,
02002000,
20020020,
0200
#GOGOEND
4000,
0,
0,
0,
0,
0,
0,
0,
0,
0,
0,
0000000002000000,
#END
