TITLE:When will the end arrive, I wonder?
SUBTITLE:--DashyDesu
BPM:198
WAVE:when.ogg
OFFSET:-0
DEMOSTART:57.005
SCOREMODE:2
PREIMAGE:story.png
LYRICS:when.vtt
MAKER:Dashy & Komi

COURSE:Edit
LEVEL:10.4
BALLOON:50
SCOREINIT:
SCOREDIFF:
#START
0,
11220000,
11221000,
12220000,
1112
0210,
11120110,
11220230,
02212030,
00002000
20202022,
11220000,
11221000,
1122
0022,
11120110,
11201122,
1011211000000000,
1010201110102010,
0011201010112000,
1110201010112210,
20002010202010000000000022002000,
1010201110102010,
2011201010112020,
1011202211102011,
1022201010221110,
10102011,
01012011,
10012000,
1011
2011,
10102011,
01012011,
1000202010002022,
10002022
10102010,
10112001,
01012011,
1000111020001000,
10102022
10102022,
10112101,
1022100000000000,
1000201110102011,
1022101022221111,
1000101020101110,
1000101120101110,
1000101120102022,
1022102210101020,
10002011
10102011,
2011200000000000,
1011202211112220,
1221221030112222,
#GOGOSTART
1011201110102012,
1011201121112011,
1011201122102011,
20112211
21102011,
1011201120112210,
1022101122101022,
1011221022103020,
10112022
22102111,
1011201110102012,
1011201121112011,
1011201122102011,
20112211
21102220,
1022122211221022,
10202000101022000000000000000000,
1011201222112030,
2011201121212000,
#GOGOEND
1011201110102010,
0011201110102000,
1011202011102010,
2011202211102011,
1020201011201110,
1120201011221010,
1011202210112022,
1022101022221111,
1000201000112000,
1010201000222020,
1011201000112011,
1020104000402211,
1000201110102011,
1011201120102020,
1011202211102010,
1022102222112211,
1000101020101110,
1000101120101110,
1000101120102022,
10221022
10101020,
1000101020101110,
1000101120101110,
1000101120102022,
10221022
10221220,
1011201110102011,
10112011
10102011,
1011202210222030,
0020303000222022,
10221022
10221222,
#SCROLL 0.888
100000000000
#SCROLL 1
1111,
#GOGOSTART
1
#GOGOEND
221221210222211,
#SCROLL 1.2
#GOGOSTART
1
#GOGOEND
221221210222211,
#SCROLL 1.4
#GOGOSTART
1
#GOGOEND
0222211
#SCROLL 1.5
#GOGOSTART
1
#GOGOEND
0221222,
#SCROLL 1.6
#GOGOSTART
1
#GOGOEND
122
#SCROLL 1.7
#GOGOSTART
1
#GOGOEND
122
#SCROLL 1.8
#GOGOSTART
1
#GOGOEND
222
#SCROLL 1.9
#GOGOSTART
1
#GOGOEND
222,
#SCROLL 1.1888
#GOGOSTART
1011201110102012,
1011201121112011,
1011201122102011,
20112211
21102011,
1011201120112210,
1022101122101022,
1011221022103020,
10112022
22102111,
1011201110102012,
1011201121112011,
1011201122102011,
20112211
21102220,
1022122211221022,
1220112212221111,
1011201222112030,
20112011
21212222,
1222122212221222,
1122112212121122,
7,
0,
0,
0000000820222020,
1011201120112210,
1022101122101022,
1011221022101222,
1011202222102111,
2011201121102011,
2011211122222020,
2111211120112110,
2111212021112222,
1011201110112210,
#GOGOEND
0,
#SCROLL 0.1888
#DIRECTION 1
#BPMCHANGE 8.88
#MEASURE 0.00000000000000000000888/0.0000000000000000000888
#GOGOSTART
3,
#END

COURSE:Oni
LEVEL:9
BALLOON:88
#START
#MEASURE 4/4
#SCROLL 0.75
1020202020102011,
11220000,
11220000,
11120000,
11120211,
11220000,
11220020,
0002,
0111,
11220000,
1220,
11120000,
3,
20001012,
10212000,
#SCROLL 1.000000
2011201020002011,
1010201120102000,
200000100100200000100000200000101010200000200000,
0020222000004020,
2011201020002011,
1010201120102000,
200000100100200000100000200000101010200000200000,
0020222010112020,
#SCROLL 0.500000
1,
0,
1,
01,
1,
1,
11,
11,
#SCROLL 0.750000
1000202020222000,
2022202020222000,
1000202020222000,
2022202010002000,
1000202020222010,
12100000,
2220100011101011,
2010100020002211,
2000200020002011,
2000200020002011,
2000200020002011,
2000200020102011,
2000200020002011,
2200,
2000200020002111,
201201202011
#SCROLL 0.800000
2
#SCROLL 0.850000
1
#SCROLL 0.900000
1
#SCROLL 0.950000
1,
#SCROLL 1.000000
#GOGOSTART
1000201120102022,
2000201120120210,
1000201120102022,
2000201120120210,
1000202210102011,
2001101011221010,
2000201110112110,
2001101020112211,
1000201120102022,
2000201120120210,
1000201120102022,
2000201120120210,
1000202210102011,
2000112210001000,
1011101020001020,
0010201120105080,
#GOGOEND
2011201020002011,
1010201120102000,
200000100100200000100000200000101010200000200000,
0020222021112020,
2011201020002011,
100000100000200000100100200000001000000020000000,
200000100100200000100000200000101010200000200000,
1020222010111120,
2011102000112010,
2011101000112000,
1011202000221010,
0011202010102020,
2011102000112010,
2011101010112000,
1011200020221010,
00112020
#SCROLL 0.95
10
#SCROLL 0.9
10
#SCROLL 0.85
20
#SCROLL 0.8
20,
#SCROLL 0.75
2000111120001010,
20112011,
2000111120001010,
20112011,
2000111120001010,
20112011,
2000111120001010,
20112011,
#SCROLL 1
2222222222221010,
2222222222221010,
2222222222221010,
2222222222221010,
41414141,
400000000000
#SCROLL 1.02
1
#SCROLL 1.04
1
#SCROLL 1.06
1
#SCROLL 1.08
1,
#SCROLL 1.1
2012012040101111,
2012012040101111,
2000112120001221,
200000101010200000101010200000100100200000100100,
#GOGOSTART
1000201120102022,
2000201120121210,
1000201120102022,
2000201120121210,
1000202210102111,
2001101011221010,
2000201110112110,
2001101020112211,
1000201120102022,
2000201120121210,
1000201120102022,
2000201120121210,
2011201120112011,
2011201120112011,
2010201011122211,
2010201011122211,
2222,
200000000000200000100100200010001000200010001000,
2000201120102022,
2000201120121210,
1000201120102022,
2000201120121210,
1000202210102111,
2001101011221010,
2000201110112110,
2001101020112010,
211211211211,
211111211111,
211211211211,
211111211111,
2010101120221020,
#GOGOEND
#SCROLL 1.5
0,
7,
0,
0,
0,
8,
#END

COURSE:Hard
LEVEL:7
BALLOON:39
#START
#BPMCHANGE 198
#MEASURE 4/4
10000100,
20010020,
10220101,
02000000,
00020211,
2021,
10020010,
0002,
00101211,
20020201,
00100102,
0100,
3,
20010010,
0201,
20112021,
11202020,
2000101020111020,
02220042,
20112021,
11202020,
2000101020111020,
02221122,
1,
0,
1,
01,
1,
1,
11,
11,
10220022,
02020200,
10222000,
0012,
10222201,
12110101,
22101110,
2010100020001110,
20202021,
20202021,
20202021,
20202121,
20202021,
2200,
2222,
1011011020002010,
#GOGOSTART
10121120,
20212101,
22102120,
12102121,
10221120,
20110110,
2000111010001010,
20112021,
10121120,
20212101,
22102120,
12102121,
10221120,
20110110,
2000111010001010,
0010101010111000,
#GOGOEND
20212021,
01202020,
20212022,
01102020,
20212021,
000100200000100010002000,
2022,
10102011,
20120111,
20210020,
10120221,
01021102,
20120121,
01201020,
20202212,
01120111,
20112011,
20112011,
20112011,
20112011,
20112011,
20112011,
20112011,
20112011,
2000200020111010,
2000200020111010,
2000200020111010,
2000200020111010,
2444,
400000000000
#SCROLL 1.10
1110,
2002002040001110,
2002002040001110,
2000111020001110,
21212121,
#GOGOSTART
10121120,
20212101,
22102120,
12102121,
10221120,
20110110,
2000111010001010,
20112021,
10121120,
20212101,
22102120,
12102121,
10221120,
20110110,
11211121,
11211121,
2222,
20212020,
20212122,
20212111,
10212122,
20212111,
10221021,
20112020,
20211120,
20112020,
1121,
222200100100,
2221,
111100200100,
2000101022201020,
#SCROLL 1.50
#GOGOEND
0,
7,
0,
0,
0,
8,
#END

COURSE:Normal
LEVEL:4
BALLOON:39
#START
#BPMCHANGE 198
#MEASURE 4/4
00000100,
2,
2,
2,
1002,
2,
2001,
0002,
0110,
2,
1110,
2,
3,
20002002,
0200,
10101001,
02,
10101001,
00020000,
10101001,
02,
20002002,
0110,
1,
0,
1,
01,
1,
1,
11,
11,
1,
0,
1,
01,
1,
1100,
1111,
2021,
2220,
2220,
20202022,
2222,
2022,
2200,
2222,
12,
#GOGOSTART
10010020,
20220101,
05000080,
1021,
1012,
20110050,
0811,
2021,
10010220,
20200101,
0508,
1021,
1012,
20110050,
0811,
2222,
#GOGOEND
20002022,
0111,
20002022,
0111,
20002022,
0110,
22,
12,
20220020,
20220000,
20220202,
02020200,
20220202,
0212,
20201011,
00020000,
2021,
2021,
2021,
2021,
2021,
2021,
2021,
2021,
2220,
2220,
2220,
2220,
2444,
4001,
2041,
2041,
2121,
2222,
#GOGOSTART
10010020,
20220101,
05000080,
1021,
1012,
20110050,
0811,
2021,
10010220,
20200101,
0508,
1021,
2220,
20202022,
2011,
1011,
1011,
10101011,
1022,
2021,
1022,
2021,
11,
2120,
2011,
21,
1121,
2211,
2221,
2121,
20102112,
#SCROLL 1.50
#GOGOEND
0,
7,
0,
0,
0,
8,
#END

COURSE:Easy
LEVEL:4
BALLOON:39
#START
#BPMCHANGE 198
#MEASURE 4/4
0,
2,
2,
2,
1,
2,
2002,
0002,
01,
2,
1,
2,
3,
2,
0200,
10000001,
02,
10000001,
00020000,
10000001,
02,
20000002,
0,
1,
0,
1,
01,
1,
1,
11,
11,
1,
0,
1,
01,
1,
1,
11,
2,
22,
2,
22,
2,
22,
2,
22,
1,
#GOGOSTART
1,
12,
21,
1,
11,
21,
2,
21,
1,
1,
21,
12,
1,
2,
11,
11,
#GOGOEND
2,
2,
22,
2,
22,
2,
22,
22,
1001,
1,
1,
11,
2,
22,
21,
11,
2002,
2002,
2002,
2002,
2002,
2002,
2002,
2002,
22,
22,
22,
22,
2022,
2001,
1001,
1001,
11,
11,
#GOGOSTART
1,
12,
21,
1,
11,
21,
2,
21,
1,
1,
21,
12,
1,
2,
11,
11,
1,
2,
12,
22,
12,
22,
11,
22,
2,
21,
2220,
2220,
2220,
2220,
2021,
#GOGOEND
2,
7,
0,
0,
0,
8,
#END
